<?xml version="1.0" standalone="no"?>
<!DOCTYPE svg PUBLIC "-//W3C//DTD SVG 1.1//EN" "http://www.w3.org/Graphics/SVG/1.1/DTD/svg11.dtd" >
<svg xmlns="http://www.w3.org/2000/svg">
  <metadata>Created by iconfont</metadata>
  <defs>
  <font id="iconfont" horiz-adv-x="1024">
    <font-face
      font-family="iconfont"
      font-weight="400"
      font-stretch="normal"
      units-per-em="1024"
      ascent="896"
      descent="-128"
    />
      <missing-glyph />
      
      <glyph glyph-name="a-jieduan111" unicode="&#58956;" d="M114.651429 895.378286c14.372571 0 26.258286-11.666286 26.258285-25.782857v-971.812572a26.185143 26.185143 0 0 0-26.258285-25.782857H62.793143A26.185143 26.185143 0 0 0 36.571429-102.217143V870.217143C36.571429 884.333714 48.457143 896 62.793143 896c0-0.621714 51.858286-0.621714 51.858286-0.621714z m846.555428 0c14.336 0 26.221714-11.666286 26.221714-25.782857v-971.812572a26.185143 26.185143 0 0 0-26.221714-25.782857h-51.858286a26.185143 26.185143 0 0 0-26.258285 25.782857V870.217143c0 14.116571 11.885714 25.782857 26.258285 25.782857 0-0.621714 51.858286-0.621714 51.858286-0.621714zM798.72 377.234286c0-12.873143-6.875429-23.917714-14.994286-23.917715H230.253714c-8.118857 0-14.994286 11.044571-14.994285 23.917715v47.286857c0 12.873143 6.875429 23.954286 14.994285 23.954286h554.788572c8.082286 0 14.994286-11.081143 14.994285-23.954286-1.28 0-1.28-47.286857-1.28-47.286857z"  horiz-adv-x="1024" />
      
      <glyph glyph-name="zhongliang" unicode="&#58948;" d="M986.550857-15.945143l-105.691428 583.606857-1.572572 4.754286c-10.788571 26.221714-45.860571 37.778286-45.860571 37.778286h-229.449143v34.230857h120.210286V796.891429A26.148571 26.148571 0 0 1 698.038857 822.857143H325.997714a26.148571 26.148571 0 0 1-26.148571-25.965714v-152.393143h120.137143v-34.230857H190.610286s-39.204571-12.946286-47.542857-42.532572L37.449143-15.908571s-7.204571-31.853714 18.870857-38.948572h455.094857v0.146286l456.045714-0.073143c26.112 7.021714 19.053714 38.838857 19.053715 38.838857z m-549.302857 112.128l-89.526857 154.88-45.385143-57.892571v-96.987429H232.96v345.014857h69.302857v-149.577143h1.462857l114.761143 149.577143h76.361143l-105.910857-135.606857 124.635428-209.408h-76.361142z m364.982857 35.035429c-23.442286-22.930286-64.256-41.581714-112.493714-41.581715-94.610286 0-166.326857 62.537143-166.326857 177.664 0 113.737143 74.057143 180.370286 166.326857 180.370286 50.176 0 84.845714-21.467429 107.300571-44.251428l-36.937143-43.885715c-16.896 16.274286-36.571429 28.928-67.913142 28.928-57.636571 0-97.974857-44.726857-97.974858-118.857143 0-75.190857 34.742857-120.32 102.656-120.32 16.822857 0 33.682286 4.644571 43.52 13.056v67.949715h-61.44V286.72h123.245715v-155.501714z"  horiz-adv-x="1024" />
      
      <glyph glyph-name="jingbangtuihuo" unicode="&#58949;" d="M689.883429 131.474286h-355.84c-16.566857 0-31.890286 9.106286-40.228572 23.844571l-177.883428 316.342857a48.859429 48.859429 0 0 0 0 47.652572l177.92 316.269714A46.262857 46.262857 0 0 0 334.08 859.428571h355.84c16.566857 0 31.926857-9.069714 40.228571-23.844571L908.068571 519.314286c8.301714-14.738286 8.301714-32.914286 0-47.689143l-177.92-316.342857a46.262857 46.262857 0 0 0-40.228571-23.771429z m-328.996572 95.341714h302.189714l151.149715 268.653714-151.149715 268.580572H360.886857l-151.076571-268.580572 151.076571-268.653714zM617.362286 284.745143a46.445714 46.445714 0 0 0-24.137143 6.765714c-22.857143 13.824-30.537143 44.178286-17.188572 67.803429l95.670858 169.069714c6.436571 11.337143 16.932571 19.602286 29.257142 22.930286 12.288 3.291429 25.380571 1.462857 36.352-5.193143 22.820571-13.824 30.500571-44.178286 17.188572-67.803429l-95.707429-169.069714a47.652571 47.652571 0 0 0-41.435428-24.502857zM837.449143 156.416c0 3.108571 1.938286 5.961143 5.010286 7.314286a9.618286 9.618286 0 0 0 9.435428-0.914286l168.557714-119.844571c4.754286-3.218286 4.754286-9.581714 0-12.8l-168.411428-119.844572a9.618286 9.618286 0 0 0-9.435429-0.950857 8.118857 8.118857 0 0 0-5.010285 7.350857v79.030857h-243.565715c-4.900571 0.036571-8.886857 3.693714-8.886857 8.192v65.243429c0 4.461714 3.949714 8.192 8.923429 8.192h243.382857v79.030857zM171.958857 162.816a9.618286 9.618286 0 0 0 9.398857 0.950857 8.118857 8.118857 0 0 0 5.010286-7.350857v-79.067429h243.419429c4.900571 0 8.923429-3.584 8.923428-8.118857L438.857143 3.986286c0-4.498286-3.986286-8.155429-8.923429-8.192H186.514286v-79.067429a8.118857 8.118857 0 0 0-5.046857-7.314286 9.618286 9.618286 0 0 0-9.398858 0.914286l-168.594285 119.881143A7.899429 7.899429 0 0 0 0 36.571429c0 2.486857 1.28 4.864 3.437714 6.4l168.521143 119.808z"  horiz-adv-x="1024" />
      
      <glyph glyph-name="changdu" unicode="&#58950;" d="M0 164.644571v438.857143A36.571429 36.571429 0 0 0 36.571429 640h950.784A36.571429 36.571429 0 0 0 1024 603.428571v-438.857142a36.571429 36.571429 0 0 0-36.644571-36.571429H36.644571a36.571429 36.571429 0 0 0-36.571428 36.644571H0z m182.784 36.571429H256V347.428571H182.857143v-146.139428l-0.073143-0.073143z m292.644571 0h73.142858v146.285714h-73.142858v-146.285714z m292.571429 0h73.142857v146.285714h-73.142857v-146.285714z m-438.857143 0h73.106286v292.571429H329.216v-292.498286l-0.109714-0.073143z m292.534857 0h73.142857v292.571429h-73.142857v-292.571429z"  horiz-adv-x="1024" />
      
      <glyph glyph-name="yongtu" unicode="&#58951;" d="M820.443429 859.428571C872.192 859.428571 914.285714 811.373714 914.285714 752.457143v-736.914286C914.285714-43.373714 872.192-91.428571 820.443429-91.428571H203.556571C151.808-91.428571 109.714286-43.52 109.714286 15.542857V752.457143C109.714286 811.373714 151.808 859.428571 203.556571 859.428571z m-127.451429-738.596571H331.008c-17.700571 0-32.109714-14.957714-32.109714-33.28 0-18.358857 14.262857-33.28 32.109714-33.28h361.984c17.700571 0 32.109714 14.921143 32.109714 33.28 0 18.322286-14.262857 33.28-32.109714 33.28z m0 149.394286H331.008c-17.700571 0-32.109714-14.774857-32.109714-33.28 0-18.322286 14.262857-33.28 32.109714-33.28h361.984c17.700571 0 32.109714 14.957714 32.109714 33.28 0 18.358857-14.262857 33.28-32.109714 33.28zM528.201143 773.010286a36.571429 36.571429 0 0 1-49.005714-16.603429l-33.938286-68.754286a36.571429 36.571429 0 0 0-27.538286-20.004571l-75.849143-11.044571a36.571429 36.571429 0 0 1-20.260571-62.354286l54.857143-53.540572a36.571429 36.571429 0 0 0 10.532571-32.365714l-12.946286-75.556571a36.571429 36.571429 0 0 1 53.065143-38.546286l67.876572 35.657143a36.571429 36.571429 0 0 0 34.011428 0l67.876572-35.657143a36.571429 36.571429 0 0 1 53.065143 38.546286l-12.946286 75.556571a36.571429 36.571429 0 0 0 10.496 32.365714l54.893714 53.540572a36.571429 36.571429 0 0 1-20.260571 62.354286l-75.849143 11.044571a36.571429 36.571429 0 0 0-27.538286 20.004571l-33.938286 68.754286a36.571429 36.571429 0 0 1-16.603428 16.603429z"  horiz-adv-x="1024" />
      
      <glyph glyph-name="a-jieduan11" unicode="&#58952;" d="M230.692571 429.421714c12.178286 0 22.272-2.669714 22.272-6.363428v-243.419429c0-3.693714-10.093714-6.363429-22.308571-6.363428H186.697143c-12.178286 0-22.272 2.669714-22.272 6.363428v243.931429c0 3.730286 10.093714 6.363429 22.308571 6.363428 0-0.512 43.995429-0.512 43.995429-0.512z m600.795429 0c12.214857 0 22.308571-2.669714 22.308571-6.363428v-243.419429c0-3.693714-10.093714-6.363429-22.308571-6.363428h-43.995429c-12.214857 0-22.308571 2.669714-22.308571 6.363428v243.931429c0 3.730286 10.093714 6.363429 22.308571 6.363428h43.995429v-0.512zM230.692571 749.714286c12.178286 0 22.272-2.669714 22.272-6.363429v-241.298286c0-3.693714-10.093714-6.363429-22.308571-6.363428H186.697143c-12.178286 0-22.272 2.669714-22.272 6.363428V743.350857c0 3.693714 10.093714 6.363429 22.308571 6.363429h43.995429z m600.795429 0c12.214857 0 22.308571-2.669714 22.308571-6.363429v-241.298286c0-3.693714-10.093714-6.363429-22.308571-6.363428h-43.995429c-12.214857 0-22.308571 2.669714-22.308571 6.363428V743.350857c0 3.693714 10.093714 6.363429 22.308571 6.363429h43.995429z m191.451429-714.825143c0-13.275429-11.666286-24.393143-25.965715-24.393143H25.965714c-14.336 0-26.002286 11.117714-26.002285 24.393143v48.274286c0 13.238857 11.666286 24.356571 25.965714 24.356571h972.068571c14.299429 0 25.965714-11.117714 25.965715-24.393143-1.060571-0.512-1.060571-48.274286-1.060572-48.274286z"  horiz-adv-x="1024" />
      
      <glyph glyph-name="gongxu" unicode="&#58953;" d="M0.001463 686.262857c0 24.246857 19.382857 43.849143 43.190857 43.849143h173.092571c23.954286 0 43.337143-19.602286 43.337143-43.849143 0-24.210286-19.382857-43.958857-43.337143-43.958857H43.19232A43.593143 43.593143 0 0 0 0.001463 686.262857z m0-614.4c0 24.210286 19.382857 43.812571 43.190857 43.812572h158.610286c23.917714 0 43.190857-19.602286 43.190857-43.812572 0-24.246857-19.382857-43.958857-43.190857-43.958857H43.19232A43.593143 43.593143 0 0 0 0.001463 71.862857z m764.379428 307.2c0 24.210286 19.382857 43.849143 43.337143 43.849143h173.092572c23.917714 0 43.190857-19.638857 43.190857-43.849143s-19.382857-43.958857-43.190857-43.958857h-173.092572a43.593143 43.593143 0 0 0-43.337143 43.958857z m-360.667428 307.2c0 24.246857 19.382857 43.849143 43.337143 43.849143h533.613714c23.954286 0 43.227429-19.602286 43.227429-43.849143 0-24.210286-19.382857-43.958857-43.227429-43.958857h-533.577143a43.593143 43.593143 0 0 0-43.373714 43.958857zM0.001463 379.062857c0 24.210286 19.382857 43.849143 43.190857 43.849143h533.76c23.917714 0 43.190857-19.638857 43.190857-43.849143s-19.382857-43.958857-43.190857-43.958857H43.155749A43.593143 43.593143 0 0 0 0.001463 379.062857z m403.748571-307.2c0 24.210286 19.382857 43.812571 43.300572 43.812572h533.613714c23.954286 0 43.227429-19.602286 43.227429-43.812572 0-24.246857-19.382857-43.958857-43.227429-43.958857h-533.577143a43.593143 43.593143 0 0 0-43.373714 43.958857zM331.009463 859.428571c28.708571 0 51.931429-23.844571 51.931428-52.297142v-212.224c0-28.964571-23.076571-52.297143-51.931428-52.297143-28.708571 0-51.931429 23.844571-51.931429 52.297143V807.131429c0 28.854857 23.076571 52.297143 51.931429 52.297142z m363.52-316.964571c28.745143 0 51.931429-23.844571 51.931428-52.297143V277.942857c0-28.964571-23.04-52.297143-51.931428-52.297143-28.708571 0-51.858286 23.844571-51.858286 52.297143v212.114286a51.931429 51.931429 0 0 0 51.894857 52.406857z m-363.52-316.928c28.708571 0 51.931429-23.844571 51.931428-52.297143v-212.370286c0-28.964571-23.076571-52.297143-51.931428-52.297142-28.708571 0-51.931429 23.844571-51.931429 52.297142v212.224c0 28.964571 23.076571 52.443429 51.931429 52.443429z"  horiz-adv-x="1024" />
      
      <glyph glyph-name="chanpinbianma" unicode="&#58954;" d="M178.907429 91.428571H113.664C91.318857 91.428571 73.142857 110.738286 73.142857 134.546286V779.702857C73.142857 803.510857 91.318857 822.857143 113.664 822.857143h65.243429C201.252571 822.857143 219.428571 803.547429 219.428571 779.739429V134.582857C219.318857 110.774857 201.142857 91.428571 178.907429 91.428571z m333.568 0h-37.522286c-19.931429 0-36.096 19.309714-36.096 43.117715V779.702857c0 23.771429 16.164571 43.117714 36.096 43.117714h37.522286c19.931429 0 36.096-19.309714 36.096-43.117714V134.582857c-0.109714-23.771429-16.164571-43.117714-36.096-43.117714zM768 91.428571h-73.069714C674.706286 91.428571 658.285714 110.738286 658.285714 134.546286V779.702857C658.285714 803.510857 674.706286 822.857143 694.857143 822.857143h73.142857c20.150857 0 36.571429-19.309714 36.571429-43.117714V134.582857c-0.109714-23.771429-16.493714-43.117714-36.571429-43.117714zM332.434286 91.428571h-6.473143C307.529143 91.428571 292.571429 110.738286 292.571429 134.546286V779.702857C292.571429 803.510857 307.529143 822.857143 325.924571 822.857143h6.436572c18.395429 0 33.353143-19.309714 33.353143-43.117714V134.582857c-0.073143-23.771429-14.957714-43.117714-33.353143-43.117714z m585.142857 0h-6.473143c-18.395429 0-33.353143 19.309714-33.353143 43.117715V779.702857c0 23.771429 14.957714 43.117714 33.353143 43.117714h6.436571c18.395429 0 33.353143-19.309714 33.353143-43.117714V134.582857c-0.073143-23.771429-14.957714-43.117714-33.353143-43.117714z m-8.96-146.285714H115.419429C92.086857-54.857143 73.142857-38.509714 73.142857-18.395429v0.219429c0 20.114286 18.944 36.461714 42.276572 36.461714h793.161142c23.332571 0 42.276571-16.347429 42.276572-36.461714v-0.219429c-0.109714-20.224-18.944-36.461714-42.276572-36.461714z"  horiz-adv-x="1024" />
      
      <glyph glyph-name="ziduanbianhao" unicode="&#58955;" d="M504.210286 676.571429h-82.285715a7.826286 7.826286 0 0 1-7.789714-7.826286v-444.342857h-7.387428L100.571429 673.170286A7.862857 7.862857 0 0 1 94.208 676.571429H7.789714A7.826286 7.826286 0 0 1 0 668.745143v-606.061714c0-4.315429 3.510857-7.826286 7.789714-7.826286h81.481143a7.826286 7.826286 0 0 1 7.789714 7.826286V513.170286h7.424l309.540572-454.948572c1.426286-2.048 3.876571-3.364571 6.473143-3.364571h83.712a7.826286 7.826286 0 0 1 7.789714 7.826286V668.745143A7.826286 7.826286 0 0 1 504.210286 676.571429z m509.110857-538.806858H608a10.532571 10.532571 0 0 1-10.678857-10.386285v-62.171429c0-5.668571 4.827429-10.349714 10.678857-10.349714h405.321143c5.851429 0 10.678857 4.681143 10.678857 10.349714v62.171429a10.532571 10.532571 0 0 1-10.678857 10.386285z m-44.544 148.004572c36.900571 41.435429 55.222857 95.451429 55.222857 162.194286 0 66.925714-18.322286 121.563429-55.222857 162.852571C930.011429 654.665143 876.873143 676.571429 810.349714 676.571429c-67.401143 0-120.393143-22.052571-158.537143-66.486858-36.644571-41.691429-54.491429-95.597714-54.491428-162.121142 0-65.974857 17.956571-119.881143 54.601143-161.572572 38.4-43.702857 91.648-65.755429 158.427428-65.755428 66.413714 0 119.515429 21.686857 158.427429 65.097142z m-158.098286 307.931428c42.057143 0 73.142857-12.288 94.72-37.193142 21.942857-25.965714 33.28-62.098286 33.28-108.470858 0-46.372571-11.227429-81.92-33.097143-107.190857-22.052571-24.795429-53.394286-37.302857-94.902857-37.302857-41.654857 0-73.435429 13.165714-95.305143 38.838857-21.76 25.673143-32.694857 60.416-32.694857 105.508572 0.109714 45.750857 10.934857 80.493714 32.694857 106.313143 22.564571 26.331429 53.76 39.497143 95.305143 39.497142z"  horiz-adv-x="1024" />
      
      <glyph glyph-name="search" unicode="&#58962;" d="M965.584 20.617 816.143 169.902c45.71 66.597 72.476 147.305 72.476 234.326 0 228.013-183.973 412.948-410.872 412.948-226.96 0-410.938-184.935-410.938-412.949 0-110.939 43.51-211.659 114.308-285.868l62.939 76.702c-48.248 55.664-77.476 128.422-77.476 208.052 0 175.033 141.178 316.891 315.281 316.891 174.137 0 315.315-141.858 315.315-316.891 0-98.666-44.862-186.791-115.2-244.907-19.407-16.036-40.755-29.786-63.635-40.844-41.299-19.957-87.591-31.139-136.48-31.139-22.664 0-44.763 2.424-66.072 6.992l-33.366-90.882c30.593-7.303 62.508-11.178 95.324-11.178 67.393 0 130.998 16.356 187.132 45.286 28.31 14.589 54.72 32.376 78.758 52.875l145.355-145.323c14.543-14.481 40.2-12.502 57.001 4.208l15.351 15.35C978.15-19.613 980.067 6.135 965.584 20.617z"  horiz-adv-x="1024" />
      
      <glyph glyph-name="fenxiang" unicode="&#58880;" d="M789.804097 158.227953 742.865042 111.300154 898.765741-44.600545 945.704796 2.327254ZM456.92259 813.106058c-209.311143 0-379.582131-170.282245-379.582131-379.582131s170.270988-379.570875 379.582131-379.570875c209.287607 0 379.558595 170.270988 379.558595 379.570875S666.210197 813.106058 456.92259 813.106058zM770.128989 433.522903c0-172.721807-140.508127-313.229934-313.206398-313.229934-172.720783 0-313.229934 140.508127-313.229934 313.229934s140.508127 313.229934 313.229934 313.229934C629.620861 746.752838 770.128989 606.24471 770.128989 433.522903z"  horiz-adv-x="1024" />
      
      <glyph glyph-name="a-xingzhuang21" unicode="&#58945;" d="M875.790661 177.008511V-16.607272c0-10.212153-7.915111-18.570067-17.57376-18.570067H165.783099c-9.658649 0-17.57376 8.357914-17.57376 18.570067V177.008511c0 7.292418-5.631906 13.256427-12.536871 13.256426H72.9466c-6.891128 0-12.536871-5.964008-12.536871-13.256426V-48.433766c0-43.892886 33.736083-79.566234 75.276577-79.566234h752.627388c41.540493 0 75.276576 35.673348 75.276577 79.566234V177.008511c0 7.292418-5.645743 13.256427-12.536871 13.256426h-62.725868c-6.904965 0-12.550709-5.964008-12.550709-13.256426z m-320.036151-37.084784v597.507825l217.001337-230.755917c17.117119-18.210289 44.73698-18.210289 61.867936 0s17.130956 47.587527 0 65.797817L542.996237 882.588039c-0.498154 0.539667-0.996308 1.065496-1.619 1.591324-0.249077 0.276752-0.498154 0.539667-0.74723 0.664206a5.535042 5.535042 0 0 1-0.885607 0.802581c-0.373615 0.276752-0.622692 0.539667-0.996308 0.802581-0.249077 0.138376-0.498154 0.401291-0.622692 0.525829l-1.120846 0.802581c-0.249077 0.138376-0.373615 0.262915-0.622692 0.401291-0.387453 0.262915-0.761068 0.525829-1.245385 0.788743-0.262915 0.138376-0.387453 0.276752-0.63653 0.415128-0.373615 0.249077-0.747231 0.525829-1.245384 0.650368C533.005486 890.171047 532.756409 890.309423 532.618033 890.447799c-0.387453 0.276752-0.761068 0.401291-1.134684 0.664205l-0.747231 0.401291c-0.373615 0.138376-0.747231 0.401291-0.996307 0.525829-0.249077 0.138376-0.622692 0.276752-0.871769 0.40129-0.387453 0.138376-0.63653 0.276752-1.010146 0.401291L526.750888 893.21532C526.501811 893.353696 526.252734 893.492072 525.879119 893.492072c-0.373615 0.138376-0.747231 0.276752-1.245385 0.401291-0.262915 0.138376-0.511991 0.138376-0.761068 0.262914-0.498154 0.138376-0.871769 0.276752-1.383761 0.401291-0.235239 0-0.484316 0.138376-0.733393 0.138376-0.511991 0.124538-0.885607 0.262915-1.38376 0.262915-0.249077 0-0.498154 0.138376-0.747231 0.138376-0.498154 0.124538-0.871769 0.124538-1.383761 0.249076-0.235239 0-0.484316 0.138376-0.871769 0.138377-0.373615 0-0.871769 0.138376-1.245384 0.138376-0.373615 0-0.747231 0-1.120847 0.138376-0.373615 0-0.622692 0-0.996307 0.124538a24.049759 24.049759 0 0 1-4.386521 0c-0.373615 0-0.622692 0-0.996308-0.138376-0.373615 0-0.747231 0-1.120846-0.138376-0.373615 0-0.871769-0.124538-1.245384-0.124538-0.262915 0-0.511991-0.138376-0.885607-0.138377-0.498154-0.138376-0.871769-0.138376-1.383761-0.262914-0.235239 0-0.484316-0.138376-0.733393-0.138376-0.498154-0.138376-0.885607-0.262915-1.383761-0.262915-0.249077 0-0.498154-0.138376-0.74723-0.138376-0.498154-0.124538-0.871769-0.249077-1.383761-0.387453-0.235239-0.138376-0.484316-0.138376-0.733393-0.276752-0.387453-0.124538-0.761068-0.262915-1.245385-0.387453-0.262915-0.138376-0.63653-0.138376-0.885606-0.276752l-1.120846-0.387453c-0.373615-0.138376-0.63653-0.276752-1.010146-0.40129-0.249077-0.138376-0.622692-0.276752-0.871769-0.401291-0.373615-0.138376-0.747231-0.401291-0.996307-0.525829l-0.747231-0.401291c-0.373615-0.276752-0.761068-0.401291-1.134684-0.664205-0.249077-0.138376-0.498154-0.276752-0.622692-0.40129a10.876358 10.876358 0 0 0-1.245385-0.802581c-0.249077-0.138376-0.373615-0.262915-0.622692-0.387453a10.876358 10.876358 0 0 0-1.245384-0.802581c-0.262915-0.138376-0.387453-0.276752-0.63653-0.401291-0.373615-0.262915-0.747231-0.525829-1.120846-0.92712-0.249077-0.138376-0.373615-0.401291-0.622693-0.525829-0.373615-0.276752-0.622692-0.539667-1.010145-0.802581-0.249077-0.276752-0.498154-0.539667-0.871769-0.802581-0.249077-0.262915-0.498154-0.525829-0.747231-0.664205l-1.494461-1.591325-291.378469-309.851672c-17.130956-18.210289-17.130956-47.601365 0-65.797817 17.130956-18.210289 44.750818-18.210289 61.867936 0l217.001337 230.755917v-597.507825c0-25.654921 19.635563-46.522031 43.75451-46.522032 24.118947 0 43.75451 20.86711 43.75451 46.522032z"  horiz-adv-x="1024" />
      
      <glyph glyph-name="a-chenggong3" unicode="&#58946;" d="M512 896C229.228308 896 0 666.771692 0 384s229.228308-512 512-512 512 229.228308 512 512S794.771692 896 512 896z m319.606154-831.606154a450.599385 450.599385 0 0 0-143.684923-96.896C632.221538-56.054154 573.046154-67.997538 512-67.997538c-61.046154 0-120.231385 11.943385-175.921231 35.495384a450.579692 450.579692 0 0 0-143.694769 96.886154A450.579692 450.579692 0 0 0 95.507692 208.078769C71.945846 263.778462 60.002462 322.953846 60.002462 384c0 61.046154 11.943385 120.231385 35.495384 175.921231a450.56 450.56 0 0 0 96.886154 143.694769A450.579692 450.579692 0 0 0 336.078769 800.492308C391.778462 824.054154 450.953846 835.997538 512 835.997538c61.046154 0 120.231385-11.943385 175.921231-35.495384a450.56 450.56 0 0 0 143.694769-96.886154 450.599385 450.599385 0 0 0 96.886154-143.694769C952.054154 504.221538 963.997538 445.046154 963.997538 384c0-61.046154-11.943385-120.231385-35.495384-175.921231a450.579692 450.579692 0 0 0-96.886154-143.694769zM571.579077 385.673846l166.232615 166.301539a44.573538 44.573538 0 0 1 0 63.015384 44.484923 44.484923 0 0 1-62.995692 0L508.593231 448.689231 342.350769 614.990769a44.524308 44.524308 0 0 1-63.015384 0 44.573538 44.573538 0 0 1 0-63.015384l166.242461-166.321231-166.478769-166.557539a44.583385 44.583385 0 0 1 0-63.02523 44.514462 44.514462 0 0 1 62.985846 0l166.478769 166.557538L675.052308 156.071385a44.544 44.544 0 0 1 63.015384 0 44.583385 44.583385 0 0 1 0 63.02523L571.579077 385.673846z"  horiz-adv-x="1024" />
      
      <glyph glyph-name="a-chenggong2" unicode="&#58947;" d="M512 896C229.228308 896 0 666.771692 0 384s229.228308-512 512-512 512 229.228308 512 512S794.771692 896 512 896z m319.606154-831.606154a450.599385 450.599385 0 0 0-143.684923-96.896C632.221538-56.054154 573.046154-67.997538 512-67.997538c-61.046154 0-120.231385 11.943385-175.921231 35.495384a450.579692 450.579692 0 0 0-143.694769 96.886154A450.579692 450.579692 0 0 0 95.507692 208.078769C71.945846 263.778462 60.002462 322.953846 60.002462 384c0 61.046154 11.943385 120.231385 35.495384 175.921231a450.56 450.56 0 0 0 96.886154 143.694769A450.579692 450.579692 0 0 0 336.078769 800.492308C391.778462 824.054154 450.953846 835.997538 512 835.997538c61.046154 0 120.231385-11.943385 175.921231-35.495384a450.56 450.56 0 0 0 143.694769-96.886154 450.599385 450.599385 0 0 0 96.886154-143.694769C952.054154 504.221538 963.997538 445.046154 963.997538 384c0-61.046154-11.943385-120.231385-35.495384-175.921231a450.579692 450.579692 0 0 0-96.886154-143.694769zM710.656 575.960615L432.768 298.092308 313.353846 417.506462a49.998769 49.998769 0 0 1-70.715077-70.715077L397.390769 192.059077a49.860923 49.860923 0 0 1 35.387077-14.670769c12.8 0 25.590154 4.873846 35.347692 14.64123l313.245539 313.235693a49.998769 49.998769 0 0 1-70.715077 70.705231z"  horiz-adv-x="1024" />
      
      <glyph glyph-name="a-tubiaosysbeifen4" unicode="&#58944;" d="M810.657684 692.870737c56.589474 0 110.861474-22.231579 150.851369-61.817263A209.812211 209.812211 0 0 0 1024 481.872842v-126.598737h-85.342316v126.598737c0 69.901474-57.290105 126.598737-128 126.598737h-768c-18.539789 0-34.950737 11.856842-40.582737 29.345684A41.957053 41.957053 0 0 0 17.92 685.002105L316.496842 896l49.502316-68.715789L175.696842 692.897684h634.960842zM213.342316 75.129263c-56.589474 0-110.861474 22.231579-150.851369 61.817263A209.812211 209.812211 0 0 0 0 286.127158v126.598737h85.342316v-126.598737c0-69.901474 57.290105-126.598737 128-126.598737h768c18.539789 0 34.950737-11.856842 40.582737-29.345684a41.957053 41.957053 0 0 0-15.845053-47.184842L707.422316-128l-49.502316 68.715789 190.302316 134.413474H213.234526h0.10779z"  horiz-adv-x="1024" />
      
      <glyph glyph-name="a-tubiaosysbeifen33" unicode="&#58943;" d="M1023.811438 895.811403v-1023.811403h-1023.811403v511.905702a40.413608 40.413608 0 0 0 80.638619 3.879706l0.188597-3.879706-0.026943-431.078486h862.156971v862.156971h-431.078485A40.413608 40.413608 0 0 0 471.680725 851.491146l-0.188597 3.906649A40.413608 40.413608 0 0 0 507.999088 895.622806l3.906648 0.188597h511.905702zM564.982275 705.651906a40.413608 40.413608 0 0 0 40.225011-36.533901l0.188597-3.879707V364.156918a67.356013 67.356013 0 0 0-62.910517-67.221301l-4.445496-0.134712H232.162742a40.413608 40.413608 0 0 0-3.879707 80.638619l3.879707 0.188597h292.405925V665.238298a40.413608 40.413608 0 0 0 36.533901 40.225011l3.879707 0.188597zM11.827751 883.956745A40.413608 40.413608 0 0 0 65.901158 886.758755l3.071434-2.775068L581.066891 372.23964a40.413608 40.413608 0 0 0-54.046465-59.946852l-3.071434 2.775068L11.827751 826.811903a40.413608 40.413608 0 0 0 0 57.144842z"  horiz-adv-x="1024" />
      
      <glyph glyph-name="a-tubiaoczbeifen2" unicode="&#58942;" d="M1005.988821 427.933235a45.588373 45.588373 0 0 1-64.772133-7.948328 47.42053 47.42053 0 0 1-9.834372-28.506204h-0.458039a432.631505 432.631505 0 0 0-89.263759-260.759028c-142.96212-185.910032-407.439348-218.511646-589.658123-72.747404a423.92876 423.92876 0 0 0-90.74565 100.310587H249.496652c25.623252 0 46.585282 21.366182 46.585281 47.528304v3.502653c0 26.135178-20.96203 47.528304-46.585281 47.528304H46.585282c-25.650196 0-46.585282-21.366182-46.585282-47.528304v-207.060666c0-26.135178 20.935086-47.528304 46.585282-47.528304h3.421822c25.650196 0 46.612225 21.366182 46.612226 47.528304v85.356954a517.772911 517.772911 0 0 1 98.397599-103.921014 505.729174 505.729174 0 0 1 181.86851-93.305281c63.963828-17.782699 129.867588-22.551695 195.933007-14.360877a502.442069 502.442069 0 0 1 186.879997 61.646689 511.980062 511.980062 0 0 1 154.844197 134.771302 524.050742 524.050742 0 0 1 91.446181 185.559766c11.693472 43.917877 17.647981 88.751833 17.863529 133.82828h-0.107774a47.42053 47.42053 0 0 1-17.755755 36.104267zM977.374842 813.386701h-3.421823c-25.650196 0-46.612225-21.366182-46.612225-47.528304V680.447557a517.853741 517.853741 0 0 1-98.424543 104.001843 505.729174 505.729174 0 0 1-181.868509 93.305282 499.58606 499.58606 0 0 1-195.959952 14.360876 502.469012 502.469012 0 0 1-186.90694-61.673632 512.033949 512.033949 0 0 1-154.87114-134.771302A523.673533 523.673533 0 0 1 17.863529 510.164745 530.786613 530.786613 0 0 1 0 376.309522h0.107774c0.242491-13.660346 6.304775-27.105144 17.621038-36.104267a45.588373 45.588373 0 0 1 64.799076 7.948327c6.520323 8.541084 9.726597 18.456286 9.834371 28.506205h0.45804a432.766222 432.766222 0 0 0 89.290702 260.812914c142.96212 185.963919 407.466292 218.565533 589.685066 72.774348a423.982647 423.982647 0 0 0 90.799538-100.337531h-88.26685c-25.650196 0-46.612225-21.366182-46.612226-47.528304v-3.502652c0-26.162122 20.96203-47.555247 46.612226-47.555248h202.938313c25.650196 0 46.585282 21.393125 46.585282 47.555248V765.966171c0.107774 26.054348-20.827312 47.42053-46.477508 47.42053z"  horiz-adv-x="1024" />
      
      <glyph glyph-name="a-tubiaosysbeifen7" unicode="&#58941;" d="M80.842105-63.380211C80.842105-99.112421 109.163789-128 144.006737-128h735.986526C914.890105-128 943.157895-99.112421 943.157895-63.380211V400.222316C943.157895 435.954526 914.836211 464.842105 879.993263 464.842105H144.006737C109.109895 464.842105 80.842105 435.954526 80.842105 400.222316v-463.602527zM164.971789 378.610526h694.056422v-420.378947H164.971789V378.610526z m352.282948 431.157895c144.006737 0 236.597895-94.558316 236.597895-206.22821h84.156631C838.009263 767.272421 704.296421 896 517.254737 896 330.186105 896 196.527158 767.299368 196.527158 603.540211v-152.872422h84.129684v152.872422c0 111.696842 92.564211 206.228211 236.597895 206.22821zM512 168.421053m-53.894737 0a53.894737 53.894737 0 1 1 107.789474 0 53.894737 53.894737 0 1 1-107.789474 0Z"  horiz-adv-x="1024" />
      
      <glyph glyph-name="a-tubiaosuoding" unicode="&#58940;" d="M80.842105-63.380211C80.842105-99.112421 109.163789-128 144.006737-128h735.986526C914.890105-128 943.157895-99.112421 943.157895-63.380211V400.222316C943.157895 435.954526 914.836211 464.842105 879.993263 464.842105H144.006737C109.109895 464.842105 80.842105 435.954526 80.842105 400.222316v-463.602527zM164.971789 378.610526h694.056422v-420.378947H164.971789V378.610526z m115.685053 224.929685c0 111.696842 92.564211 206.228211 236.597895 206.22821 144.006737 0 236.597895-94.558316 236.597895-206.22821v-152.872422h84.156631v152.872422C838.009263 767.272421 704.296421 896 517.254737 896 330.186105 896 196.527158 767.299368 196.527158 603.540211v-152.872422h84.129684v152.872422zM512 168.421053m-53.894737 0a53.894737 53.894737 0 1 1 107.789474 0 53.894737 53.894737 0 1 1-107.789474 0Z"  horiz-adv-x="1024" />
      
      <glyph glyph-name="a-shuju1" unicode="&#58939;" d="M987.099429 25.051429c9.801143 0 19.163429-3.949714 26.075428-10.971429 6.948571-6.948571 10.825143-16.457143 10.825143-26.404571v-5.156572c0-9.910857-3.876571-19.419429-10.825143-26.441143-6.912-6.985143-16.274286-10.934857-26.075428-10.934857H36.900571c-9.801143 0-19.163429 3.949714-26.075428 10.971429A37.632 37.632 0 0 0 0-17.517714v5.156571c0 20.626286 16.530286 37.376 36.900571 37.376h950.198858zM278.198857 583.533714c20.370286 0 36.900571-16.713143 36.900572-37.376v-443.940571c0-20.626286-16.530286-37.376-36.937143-37.376H115.748571a37.156571 37.156571 0 0 0-36.937142 37.376V546.194286c0 20.626286 16.530286 37.339429 36.937142 37.339428h162.486858z m630.125714-119.661714c20.370286 0 36.864-16.713143 36.864-37.376V102.4c0-9.874286-3.876571-19.382857-10.788571-26.404571-6.948571-7.021714-16.310857-10.971429-26.112-10.971429h-162.486857c-9.764571 0-19.163429 3.949714-26.075429 10.971429a37.632 37.632 0 0 0-10.825143 26.404571v324.132571c0 9.910857 3.913143 19.419429 10.825143 26.441143 6.948571 7.021714 16.310857 10.971429 26.075429 10.971429h162.486857zM593.408 822.857143c9.801143 0 19.2-3.949714 26.112-10.971429 6.948571-6.985143 10.825143-16.457143 10.825143-26.404571V102.4c0-20.626286-16.530286-37.339429-36.937143-37.339429H430.811429c-9.764571 0-19.163429 3.913143-26.075429 10.934858a37.632 37.632 0 0 0-10.825143 26.404571V785.554286c0 9.874286 3.913143 19.382857 10.825143 26.404571 6.912 6.985143 16.310857 10.934857 26.075429 10.934857h162.706285z"  horiz-adv-x="1024" />
      
      <glyph glyph-name="a-xingzhuang2" unicode="&#58938;" d="M917.248 727.259429h-445.44v-148.589715a12.8 12.8 0 0 0-12.726857-12.763428H228.571429a12.8 12.8 0 0 0-12.726858 12.8V727.222857H106.752A33.718857 33.718857 0 0 1 73.142857 693.540571v-714.678857c0-18.651429 15.140571-33.718857 33.609143-33.718857H917.211429a33.718857 33.718857 0 0 1 33.609142 33.718857V693.540571a33.645714 33.645714 0 0 1-33.609142 33.718858zM193.718857 366.701714c0 23.405714 19.090286 42.569143 42.422857 42.569143h340.992a42.605714 42.605714 0 0 0 0-85.065143H236.105143a42.605714 42.605714 0 0 0-42.386286 42.496z m624.274286-220.672c0-23.405714-19.090286-42.532571-42.422857-42.532571H236.178286a42.605714 42.605714 0 0 0-42.422857 42.532571c0 23.405714 19.090286 42.532571 42.422857 42.532572H775.68c23.222857 0 42.313143-19.126857 42.313143-42.532572zM285.988571 616.96h115.712a12.8 12.8 0 0 1 12.726858 12.763429V810.093714A12.8 12.8 0 0 1 401.737143 822.857143H286.025143a12.8 12.8 0 0 1-12.726857-12.763429v-180.297143a12.8 12.8 0 0 1 12.726857-12.836571z"  horiz-adv-x="1024" />
      
      <glyph glyph-name="guanbi" unicode="&#58937;" d="M591.2576 384L1008.196267 801.109333a54.613333 54.613333 0 0 1 0 76.8l-2.2528 2.286934a54.5792 54.5792 0 0 1-76.8 0L512.2048 462.5408 95.232 880.196267a54.5792 54.5792 0 0 1-76.8 0L16.247467 877.909333a53.623467 53.623467 0 0 1 0-76.8L433.152 384 16.213333-33.109333a54.647467 54.647467 0 0 1 0-76.8l2.286934-2.286934a54.5792 54.5792 0 0 1 76.8 0l416.904533 417.109334 416.938667-417.109334a54.5792 54.5792 0 0 1 76.8 0l2.2528 2.286934a54.613333 54.613333 0 0 1 0 76.8L591.2576 384z"  horiz-adv-x="1024" />
      
      <glyph glyph-name="a-tubiaoczbeifen1" unicode="&#58936;" d="M1005.988821 427.933235a45.588373 45.588373 0 0 1-64.772133-7.948328 47.42053 47.42053 0 0 1-9.834372-28.506204h-0.458039a432.631505 432.631505 0 0 0-89.263759-260.759028c-142.96212-185.910032-407.439348-218.511646-589.658123-72.747404a423.92876 423.92876 0 0 0-90.74565 100.310587H249.496652c25.623252 0 46.585282 21.366182 46.585281 47.528304v3.502653c0 26.135178-20.96203 47.528304-46.585281 47.528304H46.585282c-25.650196 0-46.585282-21.366182-46.585282-47.528304v-207.060666c0-26.135178 20.935086-47.528304 46.585282-47.528304h3.421822c25.650196 0 46.612225 21.366182 46.612226 47.528304v85.356954a517.772911 517.772911 0 0 1 98.397599-103.921014 505.729174 505.729174 0 0 1 181.86851-93.305281c63.963828-17.782699 129.867588-22.551695 195.933007-14.360877a502.442069 502.442069 0 0 1 186.879997 61.646689 511.980062 511.980062 0 0 1 154.844197 134.771302 524.050742 524.050742 0 0 1 91.446181 185.559766c11.693472 43.917877 17.647981 88.751833 17.863529 133.82828h-0.107774a47.42053 47.42053 0 0 1-17.755755 36.104267zM977.374842 813.386701h-3.421823c-25.650196 0-46.612225-21.366182-46.612225-47.528304V680.447557a517.853741 517.853741 0 0 1-98.424543 104.001843 505.729174 505.729174 0 0 1-181.868509 93.305282 499.58606 499.58606 0 0 1-195.959952 14.360876 502.469012 502.469012 0 0 1-186.90694-61.673632 512.033949 512.033949 0 0 1-154.87114-134.771302A523.673533 523.673533 0 0 1 17.863529 510.164745 530.786613 530.786613 0 0 1 0 376.309522h0.107774c0.242491-13.660346 6.304775-27.105144 17.621038-36.104267a45.588373 45.588373 0 0 1 64.799076 7.948327c6.520323 8.541084 9.726597 18.456286 9.834371 28.506205h0.45804a432.766222 432.766222 0 0 0 89.290702 260.812914c142.96212 185.963919 407.466292 218.565533 589.685066 72.774348a423.982647 423.982647 0 0 0 90.799538-100.337531h-88.26685c-25.650196 0-46.612225-21.366182-46.612226-47.528304v-3.502652c0-26.162122 20.96203-47.555247 46.612226-47.555248h202.938313c25.650196 0 46.585282 21.393125 46.585282 47.555248V765.966171c0.107774 26.054348-20.827312 47.42053-46.477508 47.42053z"  horiz-adv-x="1024" />
      
      <glyph glyph-name="a-tubiaotj1" unicode="&#58935;" d="M512 896c282.763636 0 512-229.236364 512-512s-229.236364-512-512-512S0 101.236364 0 384 229.236364 896 512 896z m0-69.818182C267.799273 826.181818 69.818182 628.200727 69.818182 384s197.981091-442.181818 442.181818-442.181818 442.181818 197.981091 442.181818 442.181818S756.200727 826.181818 512 826.181818zM242.525091 437.899636m34.909091 0l469.131636 0q34.909091 0 34.909091-34.909091l0 0q0-34.909091-34.909091-34.90909l-469.131636 0q-34.909091 0-34.909091 34.90909l0 0q0 34.909091 34.909091 34.909091ZM546.909091 672.465455m0-34.909091l0-469.131637q0-34.909091-34.909091-34.909091l0 0q-34.909091 0-34.909091 34.909091l0 469.131637q0 34.909091 34.909091 34.909091l0 0q34.909091 0 34.909091-34.909091Z"  horiz-adv-x="1024" />
      
      <glyph glyph-name="a-tubiaotjbeifen1" unicode="&#58934;" d="M512 896c282.763636 0 512-229.236364 512-512s-229.236364-512-512-512S0 101.236364 0 384 229.236364 896 512 896z m0-69.818182C267.799273 826.181818 69.818182 628.200727 69.818182 384s197.981091-442.181818 442.181818-442.181818 442.181818 197.981091 442.181818 442.181818S756.200727 826.181818 512 826.181818zM242.525091 437.899636m34.909091 0l469.131636 0q34.909091 0 34.909091-34.909091l0 0q0-34.909091-34.909091-34.90909l-469.131636 0q-34.909091 0-34.909091 34.90909l0 0q0 34.909091 34.909091 34.909091Z"  horiz-adv-x="1024" />
      
      <glyph glyph-name="a-tubiaosysbeifen1" unicode="&#58930;" d="M341.962105 383.973053L762.88 791.093895c24.791579 24.037053 24.791579 62.949053 0 86.905263a65.077895 65.077895 0 0 1-89.869474 0L207.198316 427.412211c-24.764632-23.983158-24.764632-62.922105 0-86.851369l465.81221-450.56a64.592842 64.592842 0 0 1 44.975158-18.000842c16.249263 0 32.525474 6.009263 44.894316 18.054737 24.791579 23.983158 24.791579 62.841263 0 86.824421L341.962105 384"  horiz-adv-x="1024" />
      
      <glyph glyph-name="a-tubiaosysbeifen2" unicode="&#58931;" d="M942.349474-102.4H644.149895a39.073684 39.073684 0 0 0-38.965895 38.938947v222.369685h-194.910316v-222.369685a39.073684 39.073684 0 0 0-38.965895-38.938947H73.108211a39.073684 39.073684 0 0 0-38.965895 38.938947V450.829474c0 12.853895 6.224842 24.144842 15.575579 31.151158L482.384842 852.506947a38.992842 38.992842 0 0 0 50.661053 0l434.661052-372.11621c8.569263-7.383579 13.635368-18.297263 13.635369-29.588211v-514.263579a39.073684 39.073684 0 0 0-38.992842-38.938947z m-259.233685 77.877895h220.26779V432.882526L507.742316 771.718737 112.101053 432.720842V-24.522105h220.213894v183.430737a77.877895 77.877895 0 0 0 77.958737 77.877894h194.910316a77.877895 77.877895 0 0 0 77.958737-77.877894v-183.430737z"  horiz-adv-x="1024" />
      
      <glyph glyph-name="a-tubiaosysbeifen" unicode="&#58932;" d="M741.052632 815.157895a40.421053 40.421053 0 0 0 0 80.842105h188.631579A94.315789 94.315789 0 0 0 1024 801.684211v-188.631579a40.421053 40.421053 0 0 0-80.842105 0v188.631579a13.473684 13.473684 0 0 1-13.473684 13.473684h-188.631579zM943.157895 154.947368a40.421053 40.421053 0 0 0 80.842105 0v-188.631579a94.315789 94.315789 0 0 0-94.315789-94.315789h-188.631579a40.421053 40.421053 0 0 0 0 80.842105h188.631579a13.473684 13.473684 0 0 1 13.473684 13.473684v188.631579zM282.947368-47.157895a40.421053 40.421053 0 0 0 0-80.842105h-188.631579A94.315789 94.315789 0 0 0 0-33.684211v188.631579a40.421053 40.421053 0 0 0 80.842105 0v-188.631579a13.473684 13.473684 0 0 1 13.473684-13.473684h188.631579zM80.842105 613.052632a40.421053 40.421053 0 0 0-80.842105 0v188.631579A94.315789 94.315789 0 0 0 94.315789 896h188.631579a40.421053 40.421053 0 0 0 0-80.842105h-188.631579a13.473684 13.473684 0 0 1-13.473684-13.473684v-188.631579z m794.947369-188.631579a40.421053 40.421053 0 0 0 0-80.842106h-727.578948a40.421053 40.421053 0 0 0 0 80.842106h727.578948z"  horiz-adv-x="1024" />
      
      <glyph glyph-name="a-tubiaoxx" unicode="&#58933;" d="M395.102316-2.856421a122.853053 122.853053 0 0 1 103.424-56.858947 122.88 122.88 0 0 1 103.397052 56.858947h75.048421C648.946526-78.147368 577.886316-128 498.526316-128s-150.447158 49.852632-178.472421 125.143579h75.048421zM498.526316 896c35.354947 0 68.176842-18.755368 86.447158-49.502316a103.666526 103.666526 0 0 0 2.883368-100.648421c123.607579-38.615579 213.504-155.459368 213.504-293.591579v-257.077895l98.708211-83.429052c14.524632-12.261053 19.887158-32.444632 13.473684-50.445474a44.894316 44.894316 0 0 0-42.199579-30.019368H125.709474c-18.890105 0-35.759158 12.018526-42.172632 30.019368a45.918316 45.918316 0 0 0 13.446737 50.445474l98.681263 83.456v257.077895c0 138.105263 89.896421 254.949053 213.557895 293.618526a103.666526 103.666526 0 0 0 2.910316 100.594526A100.675368 100.675368 0 0 0 498.526316 896z m0-204.8c-130.101895 0-235.573895-106.981053-235.573895-238.942316v-289.064421l-75.290947-63.649684h621.702737l-75.290948 63.649684V452.257684c0 131.961263-105.472 238.942316-235.546947 238.942316z m0 136.542316c-18.593684 0-33.684211-15.279158-33.684211-34.142316s15.090526-34.142316 33.684211-34.142316S532.156632 774.736842 532.156632 793.6 517.12 827.742316 498.526316 827.742316zM448 724.156632l156.079158-12.422737 61.089684-45.433263 84.453053-133.173895v-225.684211l15.144421-97.711158c27.782737-34.438737 41.660632-54.676211 41.660631-60.658526 0-6.009263 5.712842-17.084632 17.111579-33.253053v-37.941894H166.184421l-11.317895 37.941894 54.918737 33.253053 20.048842 60.658526v323.368421l68.096 99.274106 150.069895 91.782737z"  horiz-adv-x="1024" />
      
      <glyph glyph-name="a-tubiaotc" unicode="&#58929;" d="M704.564047 567.256426a41.891032 41.891032 0 0 0 59.617269 0l149.056641-150.834653c16.513956-16.702533 16.513956-43.615164 0-60.317698l-149.056641-150.807713a41.891032 41.891032 0 0 0-59.617269 0 42.941675 42.941675 0 0 0 0 60.344637l77.047171 77.963116H376.547841a42.64534 42.64534 0 0 0 0 85.317618h405.063377l-77.047171 78.016995a42.914735 42.914735 0 0 0 0 60.317698zM544.165847-127.703665H165.557128c-22.413722 0-43.911499 8.997816-59.805845 25.0538A85.991108 85.991108 0 0 0 80.966878-42.197469V810.466865C80.966878 857.691931 118.790034 896 165.530189 896h378.635658a42.64534 42.64534 0 0 0 0-85.317619H207.717555a41.864092 41.864092 0 0 1-29.902922-12.230564 42.860856 42.860856 0 0 1-12.55384-30.064561v-768.478177c0-22.898635 18.992397-42.295125 42.456762-42.295125h336.475231a42.64534 42.64534 0 1 0 0-85.317619z"  horiz-adv-x="1024" />
      
      <glyph glyph-name="a-tubiaochangyong92" unicode="&#58914;" d="M770.7904 844.8H254.378667a85.333333 85.333333 0 0 1-69.051734-35.2L18.875733 580.352a85.333333 85.333333 0 0 1 2.8416-103.9616l444.544-546.730667a59.733333 59.733333 0 0 1 92.740267 0.059734l443.434667 546.798933a85.333333 85.333333 0 0 1 2.926933 103.68L839.9872 809.386667A85.333333 85.333333 0 0 1 770.798933 844.8zM254.378667 759.466667h516.420266l165.376-229.205334-423.594666-522.299733-424.644267 522.257067L254.370133 759.466667zM273.066667 563.2m42.666666 0l384 0q42.666667 0 42.666667-42.666667l0 0q0-42.666667-42.666667-42.666666l-384 0q-42.666667 0-42.666666 42.666666l0 0q0 42.666667 42.666666 42.666667Z"  horiz-adv-x="1024" />
      
      <glyph glyph-name="a-tubiaochangyong42" unicode="&#58915;" d="M290.062933 136.610133a42.666667 42.666667 0 0 0-58.999466-1.28l-1.339734 1.28L12.4992 353.826133a42.666667 42.666667 0 0 0-1.28 59.008l1.28 1.339734L229.723733 631.381333a42.666667 42.666667 0 0 0 61.6192-58.999466l-1.28-1.339734L103.012267 384l187.050666-187.050667a42.666667 42.666667 0 0 0 1.28-59.008l-1.28-1.3312zM733.1904 136.610133a42.666667 42.666667 0 0 1 59.008-1.28l1.3312 1.28 217.224533 217.216a42.666667 42.666667 0 0 1 1.28 59.008l-1.28 1.339734L793.5296 631.381333a42.666667 42.666667 0 0 1-61.610667-58.999466l1.28-1.339734L920.241067 384 733.1904 196.949333a42.666667 42.666667 0 0 1-1.28-59.008l1.28-1.3312zM469.339733 896m42.666667 0l0 0q42.666667 0 42.666667-42.666667l0-938.666666q0-42.666667-42.666667-42.666667l0 0q-42.666667 0-42.666667 42.666667l0 938.666666q0 42.666667 42.666667 42.666667Z"  horiz-adv-x="1024" />
      
      <glyph glyph-name="a-tubiaochangyong52" unicode="&#58916;" d="M981.333333 170.666667a42.666667 42.666667 0 1 0 0-85.333334H518.5536l49.271467 85.333334H981.333333z m-610.5856 170.666666l-49.262933-85.333333H42.666667a42.666667 42.666667 0 1 0 0 85.333333h328.081066z m610.5856 0a42.666667 42.666667 0 1 0 0-85.333333H617.088l49.271467 85.333333H981.333333z m-512.0512 170.666667l-49.262933-85.333333H42.666667a42.666667 42.666667 0 1 0 0 85.333333h426.615466z m512.0512 0a42.666667 42.666667 0 1 0 0-85.333333H715.6224l49.271467 85.333333H981.333333z m-413.508266 170.666667l-49.271467-85.333334H42.666667a42.666667 42.666667 0 1 0 0 85.333334h525.1584zM225.456973-85.334949m21.333333 36.950417l524.8 908.980264q21.333333 36.950417 58.283751 15.617084l0 0q36.950417-21.333333 15.617084-58.283751l-524.8-908.980264q-21.333333-36.950417-58.283751-15.617083l0 0q-36.950417 21.333333-15.617084 58.28375Z"  horiz-adv-x="1024" />
      
      <glyph glyph-name="a-tubiaochangyong10" unicode="&#58917;" d="M512 810.666667c179.089067 0 324.266667-145.1776 324.266667-324.266667S691.089067 162.133333 512 162.133333 187.733333 307.310933 187.733333 486.4s145.1776 324.266667 324.266667 324.266667z m0-68.266667c-141.3888 0-256-114.6112-256-256 0-141.3888 114.6112-256 256-256 141.3888 0 256 114.6112 256 256 0 141.3888-114.6112 256-256 256zM554.666667 896m0-42.666667l0-170.666666q0-42.666667-42.666667-42.666667l0 0q-42.666667 0-42.666667 42.666667l0 170.666666q0 42.666667 42.666667 42.666667l0 0q42.666667 0 42.666667-42.666667ZM921.6 443.733333m-42.666667 0l-170.666666 0q-42.666667 0-42.666667 42.666667l0 0q0 42.666667 42.666667 42.666667l170.666666 0q42.666667 0 42.666667-42.666667l0 0q0-42.666667-42.666667-42.666667ZM349.866667 443.733333m-42.666667 0l-170.666667 0q-42.666667 0-42.666666 42.666667l0 0q0 42.666667 42.666666 42.666667l170.666667 0q42.666667 0 42.666667-42.666667l0 0q0-42.666667-42.666667-42.666667ZM554.666667 315.733333m0-42.666666l0-170.666667q0-42.666667-42.666667-42.666667l0 0q-42.666667 0-42.666667 42.666667l0 170.666667q0 42.666667 42.666667 42.666666l0 0q42.666667 0 42.666667-42.666666ZM1024-42.666667m0-42.666666l0 0q0-42.666667-42.666667-42.666667l-938.666666 0q-42.666667 0-42.666667 42.666667l0 0q0 42.666667 42.666667 42.666666l938.666666 0q42.666667 0 42.666667-42.666666Z"  horiz-adv-x="1024" />
      
      <glyph glyph-name="a-tubiaochangyong112" unicode="&#58918;" d="M1024-42.666667m0-42.666666l0 0q0-42.666667-42.666667-42.666667l-938.666666 0q-42.666667 0-42.666667 42.666667l0 0q0 42.666667 42.666667 42.666666l938.666666 0q42.666667 0 42.666667-42.666666ZM145.066667 503.466667a42.666667 42.666667 0 0 0 42.666666-42.666667c0-179.089067 145.1776-324.266667 324.266667-324.266667a42.666667 42.666667 0 0 0 0-85.333333c-226.218667 0-409.6 183.381333-409.6 409.6a42.666667 42.666667 0 0 0 42.666667 42.666667z m162.133333 25.6a42.666667 42.666667 0 0 0 42.666667-42.666667c0-103.68 84.053333-187.733333 187.733333-187.733333a42.666667 42.666667 0 0 0 0-85.333334c-150.8096 0-273.066667 122.257067-273.066667 273.066667a42.666667 42.666667 0 0 0 42.666667 42.666667z m170.666667 170.666666c150.8096 0 273.066667-122.257067 273.066666-273.066666a42.666667 42.666667 0 0 0-85.333333 0c0 103.68-84.053333 187.733333-187.733333 187.733333a42.666667 42.666667 0 0 0 0 85.333333z m25.6 162.133334c226.218667 0 409.6-183.381333 409.6-409.6a42.666667 42.666667 0 0 0-85.333334 0c0 179.089067-145.1776 324.266667-324.266666 324.266666a42.666667 42.666667 0 0 0 0 85.333334z"  horiz-adv-x="1024" />
      
      <glyph glyph-name="a-tubiaochangyong72" unicode="&#58919;" d="M512 896c282.769067 0 512-229.230933 512-512a42.666667 42.666667 0 0 0-85.333333 0c0 235.639467-191.0272 426.666667-426.666667 426.666667a42.666667 42.666667 0 1 0 0 85.333333z m0-170.666667c188.509867 0 341.333333-152.823467 341.333333-341.333333a42.666667 42.666667 0 0 0-85.290666-1.851733L768 384c0 141.3888-114.6112 256-256 256a42.666667 42.666667 0 0 0 0 85.333333z m0-170.666666c94.2592 0 170.666667-76.407467 170.666667-170.666667a42.666667 42.666667 0 0 0-85.290667-1.851733L597.333333 384c0 47.1296-38.203733 85.333333-85.333333 85.333333a42.666667 42.666667 0 0 0 0 85.333334zM512-128C229.230933-128 0 101.230933 0 384a42.666667 42.666667 0 0 0 85.333333 0c0-235.639467 191.0272-426.666667 426.666667-426.666667a42.666667 42.666667 0 1 0 0-85.333333z m0 170.666667c-188.509867 0-341.333333 152.823467-341.333333 341.333333a42.666667 42.666667 0 0 0 85.290666 1.851733L256 384c0-141.3888 114.6112-256 256-256a42.666667 42.666667 0 0 0 0-85.333333z m0 170.666666c-94.2592 0-170.666667 76.407467-170.666667 170.666667a42.666667 42.666667 0 0 0 85.290667 1.851733L426.666667 384c0-47.1296 38.203733-85.333333 85.333333-85.333333a42.666667 42.666667 0 0 0 0-85.333334z"  horiz-adv-x="1024" />
      
      <glyph glyph-name="a-tubiaochangyong82" unicode="&#58920;" d="M928.2048 235.972267h1.3824L791.3216 637.781333H679.168l-65.6128-63.547733c-7.9872-7.697067-9.6256-157.943467-19.5328-178.2016-10.24 24.695467-29.568 175.112533-35.968 184.379733l-136.96 198.980267-257.5104-83.182933-71.2448-460.2368h1.4336l-10.88-85.316267 1.3056-0.170667 68.4288-168.277333h718.7968l68.0704 167.389867 2.5088 1.058133-13.7728 85.316267h-0.0256z m80.2816 0L1024 151.364267 929.8176-102.4H352.1536c35.968 0-232.9088 0-250.7008 14.993067L0 151.3984l16.0512 84.608c0 2.397867-0.6144 4.718933-0.2304 7.150933l76.416 493.371734c2.5344 16.008533 13.021867 29.013333 27.008 33.476266l305.664 98.7136c15.1296 4.864 31.3856-1.058133 41.0368-14.967466l128.0768-186.094934 45.6704 44.2624c6.980267 6.741333 15.906133 10.453333 25.1392 10.4448h152.832c15.786667 0.042667 29.960533-10.786133 35.6608-27.2384l152.832-444.100266c1.7152-4.949333 2.2528-10.069333 2.304-15.0784l0.0256 0.0256z"  horiz-adv-x="1024" />
      
      <glyph glyph-name="a-tubiaochangyong14" unicode="&#58921;" d="M0 759.466667m42.666667 0l614.4 0q42.666667 0 42.666666-42.666667l0 0q0-42.666667-42.666666-42.666667l-614.4 0q-42.666667 0-42.666667 42.666667l0 0q0 42.666667 42.666667 42.666667ZM324.266667 93.866667m42.666666 0l614.4 0q42.666667 0 42.666667-42.666667l0 0q0-42.666667-42.666667-42.666667l-614.4 0q-42.666667 0-42.666666 42.666667l0 0q0 42.666667 42.666666 42.666667ZM35.310933-32.341333L928.341333 860.672a42.666667 42.666667 0 1 0 60.3392-60.3392L95.658667-92.672a42.666667 42.666667 0 0 0-60.330667 60.330667zM204.8 853.333333v-614.4a42.666667 42.666667 0 0 0-85.333333 0V853.333333a42.666667 42.666667 0 0 0 85.333333 0zM904.533333 529.066667v-614.4a42.666667 42.666667 0 1 0-85.333333 0V529.066667a42.666667 42.666667 0 0 0 85.333333 0z"  horiz-adv-x="1024" />
      
      <glyph glyph-name="a-tubiaochangyong141" unicode="&#58922;" d="M622.933333 896c65.979733 0 119.466667-53.486933 119.466667-119.466667v-34.133333H657.066667v34.133333a34.133333 34.133333 0 0 1-32.426667 34.090667L622.933333 810.666667H119.466667a34.133333 34.133333 0 0 1-34.090667-32.426667L85.333333 776.533333v-563.2a34.133333 34.133333 0 0 1 32.426667-34.090666L119.466667 179.2h98.944v-85.333333H119.466667C53.486933 93.866667 0 147.3536 0 213.333333V776.533333C0 842.513067 53.486933 896 119.466667 896h503.466666zM904.533333 674.133333c65.979733 0 119.466667-53.486933 119.466667-119.466666v-563.2c0-65.979733-53.486933-119.466667-119.466667-119.466667H401.066667c-65.979733 0-119.466667 53.486933-119.466667 119.466667V554.666667c0 65.979733 53.486933 119.466667 119.466667 119.466666h503.466666z m0-85.333333H401.066667a34.133333 34.133333 0 0 1-34.090667-32.426667L366.933333 554.666667v-563.2a34.133333 34.133333 0 0 1 32.426667-34.090667l1.706667-0.042667h503.466666a34.133333 34.133333 0 0 1 34.090667 32.426667l0.042667 1.706667V554.666667a34.133333 34.133333 0 0 1-32.426667 34.090666L904.533333 588.8z m-17.015466-187.485867l1.339733-1.28a42.666667 42.666667 0 0 0 1.28-59.008l-1.28-1.3312L623.36 74.197333a59.733333 59.733333 0 0 0-82.9952-1.425066l-1.476267 1.425066-120.6784 120.6784a42.666667 42.666667 0 0 0 58.999467 61.6192l1.339733-1.28L581.12 152.644267l247.381333 247.381333a42.666667 42.666667 0 0 0 59.008 1.28z"  horiz-adv-x="1024" />
      
      <glyph glyph-name="a-tubiaochangyong131" unicode="&#58923;" d="M460.8 896c254.4896 0 460.8-206.3104 460.8-460.8s-206.3104-460.8-460.8-460.8S0 180.7104 0 435.2 206.3104 896 460.8 896z m0-85.333333c-207.36 0-375.466667-168.106667-375.466667-375.466667s168.106667-375.466667 375.466667-375.466667 375.466667 168.106667 375.466667 375.466667-168.106667 375.466667-375.466667 375.466667zM727.567164 112.359724m30.16989 30.169889l0 0q30.169889 30.169889 60.339778 0l187.053314-187.053314q30.169889-30.169889 0-60.339779l0 0q-30.169889-30.169889-60.339778 0l-187.053314 187.053314q-30.169889 30.169889 0 60.339779ZM577.962667 190.660267H334.609067c-11.349333 0-21.845333 6.033067-27.52 15.829333L185.429333 416.580267a31.633067 31.633067 0 0 0 0 31.658666l121.668267 210.056534A31.803733 31.803733 0 0 0 334.6176 674.133333H577.962667c11.357867 0 21.845333-6.033067 27.52-15.837866l121.685333-210.056534a31.5904 31.5904 0 0 0 0-31.658666l-121.685333-210.090667a31.803733 31.803733 0 0 0-27.52-15.829333z m-225.006934 63.317333h206.6688l103.364267 178.432-103.364267 178.389333H352.955733L249.634133 432.401067l103.3216-178.414934zM513.6896 288.759467c-5.632-0.008533-11.153067 1.4848-16 4.334933a31.829333 31.829333 0 0 0-11.383467 43.502933l63.377067 108.458667a31.744 31.744 0 0 0 43.451733 11.383467 31.837867 31.837867 0 0 0 11.374934-43.4944l-63.3856-108.458667a31.726933 31.726933 0 0 0-27.434667-15.726933z"  horiz-adv-x="1024" />
      
      <glyph glyph-name="a-tubiaochangyong121" unicode="&#58924;" d="M512 819.2c240.3584 0 435.2-194.8416 435.2-435.2s-194.8416-435.2-435.2-435.2S76.8 143.6416 76.8 384 271.6416 819.2 512 819.2z m0-68.266667c-202.6496 0-366.933333-164.283733-366.933333-366.933333s164.283733-366.933333 366.933333-366.933333 366.933333 164.283733 366.933333 366.933333-164.283733 366.933333-366.933333 366.933333zM512 546.133333c89.540267 0 162.133333-72.593067 162.133333-162.133333s-72.593067-162.133333-162.133333-162.133333-162.133333 72.593067-162.133333 162.133333 72.593067 162.133333 162.133333 162.133333z m0-68.266666c-51.84 0-93.866667-42.026667-93.866667-93.866667s42.026667-93.866667 93.866667-93.866667 93.866667 42.026667 93.866667 93.866667-42.026667 93.866667-93.866667 93.866667zM554.666667 896m0-42.666667l0-170.666666q0-42.666667-42.666667-42.666667l0 0q-42.666667 0-42.666667 42.666667l0 170.666666q0 42.666667 42.666667 42.666667l0 0q42.666667 0 42.666667-42.666667ZM1024 341.333333m-42.666667 0l-170.666666 0q-42.666667 0-42.666667 42.666667l0 0q0 42.666667 42.666667 42.666667l170.666666 0q42.666667 0 42.666667-42.666667l0 0q0-42.666667-42.666667-42.666667ZM256 341.333333m-42.666667 0l-170.666666 0q-42.666667 0-42.666667 42.666667l0 0q0 42.666667 42.666667 42.666667l170.666666 0q42.666667 0 42.666667-42.666667l0 0q0-42.666667-42.666667-42.666667ZM554.666667 128m0-42.666667l0-170.666666q0-42.666667-42.666667-42.666667l0 0q-42.666667 0-42.666667 42.666667l0 170.666666q0 42.666667 42.666667 42.666667l0 0q42.666667 0 42.666667-42.666667Z"  horiz-adv-x="1024" />
      
      <glyph glyph-name="a-tubiaochangyong32" unicode="&#58925;" d="M1024-85.333333a42.666667 42.666667 0 0 0-40.814933-42.632534l-1.851734-0.042666h-733.866666c-79.197867 0-143.573333 63.4624-145.041067 142.3104l-0.0256 2.756266v742.4a42.666667 42.666667 0 0 0 85.290667 1.851734l0.042666-1.851734v-742.4a59.733333 59.733333 0 0 1 57.685334-59.6992l2.048-0.034133h733.866666a42.666667 42.666667 0 0 0 42.666667-42.666667zM332.586974 674.48585m-26.851004-33.158228l0 0q-26.851003-33.158228-60.009231-6.307224l-225.475948 182.586823q-33.158228 26.851003-6.307224 60.009231l0 0q26.851003 33.158228 60.009231 6.307224l225.475948-182.586823q33.158228-26.851003 6.307224-60.009231ZM870.4 494.933333c65.979733 0 119.466667-53.495467 119.466667-119.466666v-238.933334c0-65.988267-53.486933-119.466667-119.466667-119.466666h-469.333333c-65.979733 0-119.466667 53.4784-119.466667 119.466666v238.933334c0 65.9712 53.486933 119.466667 119.466667 119.466666h469.333333z m0-85.333333h-469.333333a34.133333 34.133333 0 0 1-34.090667-32.4352l-0.042667-1.706667v-238.933333a34.133333 34.133333 0 0 1 32.426667-34.090667l1.706667-0.042666h469.333333a34.133333 34.133333 0 0 1 34.090667 32.426666l0.042666 1.706667v238.933333a34.133333 34.133333 0 0 1-32.426666 34.090667l-1.706667 0.042667z"  horiz-adv-x="1024" />
      
      <glyph glyph-name="a-tubiaochangyong15" unicode="&#58926;" d="M825.216 522.222933l-594.346667-594.346666c-48.324267-48.315733-126.6688-48.315733-174.993066 0-48.324267 48.324267-48.324267 126.6688 0 174.984533l594.346666 594.346667 174.984534-174.984534z m-120.686933 0.017067l-54.306134 54.306133-534.007466-534.016a38.4 38.4 0 0 1-1.245867-53.009066l1.245867-1.3056a38.4 38.4 0 0 1 52.992-1.245867l1.314133 1.245867 534.007467 534.016zM687.607467 734.592l111.633066 111.633067c48.315733 48.324267 126.660267 48.324267 174.984534 0 48.315733-48.324267 48.315733-126.6688 0-174.984534L862.592 559.607467 687.607467 734.592z m120.6784 0l54.306133-54.2976 51.285333 51.285333a38.4 38.4 0 0 1 1.2544 52.992l-1.245866 1.314134a38.4 38.4 0 0 1-52.992 1.245866l-1.314134-1.245866-51.285333-51.285334zM369.342547 647.282325m30.169889-30.169889l0 0q30.169889-30.169889 0-60.339779l-319.800827-319.800826q-30.169889-30.169889-60.339778 0l0 0q-30.169889 30.169889 0 60.339778l319.800826 319.800827q30.169889 30.169889 60.339779 0ZM966.493202 553.23298m30.169889-30.169889l0 0q30.169889-30.169889 0-60.339779l-217.223203-217.223203q-30.169889-30.169889-60.339779 0l0 0q-30.169889 30.169889 0 60.339779l217.223203 217.223203q30.169889 30.169889 60.339779 0Z"  horiz-adv-x="1024" />
      
      <glyph glyph-name="a-tubiaochangyong62" unicode="&#58927;" d="M862.429867 128a85.333333 85.333333 0 0 0 67.720533-33.416533L1002.666667 0a79.581867 79.581867 0 0 0-63.1552-128H84.48A79.581867 79.581867 0 0 0 21.333333 0l72.516267 94.583467A85.333333 85.333333 0 0 0 161.570133 128h700.859734z m0-68.266667H161.570133a17.066667 17.066667 0 0 1-12.6208-5.5808l-0.9216-1.109333-72.516266-94.574933a11.3152 11.3152 0 0 1 7.816533-18.141867l1.160533-0.059733H939.52a11.3152 11.3152 0 0 1 9.642667 17.237333l-0.6656 0.964267-72.516267 94.583466a17.066667 17.066667 0 0 1-12.100267 6.621867l-1.442133 0.059733zM512 861.866667a42.666667 42.666667 0 0 0 42.666667-42.666667v-45.9776C671.317333 754.909867 763.460267 662.775467 781.764267 546.133333H827.733333a42.666667 42.666667 0 0 0 0-85.333333h-45.9776C763.4432 344.149333 671.3088 252.0064 554.666667 233.7024V187.733333a42.666667 42.666667 0 0 0-85.333334 0v45.9776C352.682667 252.023467 260.548267 344.157867 242.235733 460.8L196.266667 460.8a42.666667 42.666667 0 0 0 0 85.333333h45.9776C260.548267 662.775467 352.6912 754.9184 469.333333 773.2224V819.2a42.666667 42.666667 0 0 0 42.666667 42.666667z m42.666667-158.045867V648.533333a42.666667 42.666667 0 0 0-85.333334 0v55.278934C390.459733 687.104 328.362667 624.9984 311.637333 546.133333L366.933333 546.133333a42.666667 42.666667 0 0 0 0-85.333333h-55.278933C328.362667 381.9264 390.468267 319.829333 469.333333 303.104L469.333333 358.4a42.666667 42.666667 0 0 0 85.333334 0v-55.278933C633.531733 319.829333 695.637333 381.934933 712.3456 460.8H657.066667a42.666667 42.666667 0 0 0 0 85.333333h55.287466c-16.7168 78.865067-78.8224 140.970667-157.696 157.687467z"  horiz-adv-x="1024" />
      
      <glyph glyph-name="a-tubiaochangyong21" unicode="&#58928;" d="M324.266667 648.533333v-657.066666c0-65.979733-53.486933-119.466667-119.466667-119.466667s-119.466667 53.486933-119.466667 119.466667V648.533333h238.933334zM238.933333 563.2h-68.266666v-571.733333a34.133333 34.133333 0 0 1 32.426666-34.090667l1.706667-0.042667a34.133333 34.133333 0 0 1 34.090667 32.426667L238.933333-8.533333V563.2zM85.333333 682.666667V776.533333c0 65.979733 53.486933 119.466667 119.466667 119.466667s119.466667-53.486933 119.466667-119.466667v-93.866666H85.333333z m85.333334 85.333333h68.266666v8.533333a34.133333 34.133333 0 0 1-32.426666 34.090667L204.8 810.666667a34.133333 34.133333 0 0 1-34.090667-32.426667L170.666667 776.533333v-8.533333zM657.066667 827.733333m42.666666 0l0 0q42.666667 0 42.666667-42.666666l0-750.933334q0-42.666667-42.666667-42.666666l0 0q-42.666667 0-42.666666 42.666666l0 750.933334q0 42.666667 42.666666 42.666666ZM947.1232 183.773867a42.666667 42.666667 0 0 0 1.28-59.008l-1.28-1.339734-217.216-217.216a42.666667 42.666667 0 0 0-59.008-1.28l-1.339733 1.28L452.352 123.426133a42.666667 42.666667 0 0 0 58.999467 61.627734l1.339733-1.28L699.733333-3.2768l187.050667 187.050667a42.666667 42.666667 0 0 0 59.008 1.28l1.3312-1.28z"  horiz-adv-x="1024" />
      
      <glyph glyph-name="a-tubiaochangyong111" unicode="&#58913;" d="M460.8 896c254.4896 0 460.8-206.3104 460.8-460.8s-206.3104-460.8-460.8-460.8S0 180.7104 0 435.2 206.3104 896 460.8 896z m0-85.333333c-207.36 0-375.466667-168.106667-375.466667-375.466667s168.106667-375.466667 375.466667-375.466667 375.466667 168.106667 375.466667 375.466667-168.106667 375.466667-375.466667 375.466667zM719.033831 120.893057m30.169889 30.169889l0 0q30.169889 30.169889 60.339779 0l187.053314-187.053314q30.169889-30.169889 0-60.339778l0 0q-30.169889-30.169889-60.339779 0l-187.053314 187.053314q-30.169889 30.169889 0 60.339778ZM427.093333 261.930667a59.733333 59.733333 0 0 0-82.9952-1.425067l-1.476266 1.425067-120.6784 120.6784a42.666667 42.666667 0 0 0 58.999466 61.6192l1.339734-1.28L384.853333 340.3776l247.381334 247.381333a42.666667 42.666667 0 0 0 59.008 1.28l1.339733-1.28a42.666667 42.666667 0 0 0 1.28-58.999466l-1.28-1.3312L427.093333 261.930667z"  horiz-adv-x="1024" />
      
      <glyph glyph-name="a-tubiaochangyong91" unicode="&#58902;" d="M1006.933333 684.6208L516.266667 896 25.6 684.6208v-602.6496L516.266667-128l42.376533 18.141867h8.968533v3.84L1006.933333 81.937067V684.629333zM516.266667 504.695467L391.918933 557.909333l349.320534 162.048c0.802133 0.392533 1.3312 1.1008 2.0992 1.553067l139.349333-60.032L516.266667 504.695467zM657.2288 758.613333l-352.341333-163.473066-155.050667 66.3808L516.266667 819.336533 657.2288 758.613333zM95.6928 608.1024l140.194133-59.997867v-218.88c0-19.456 15.6928-35.242667 35.0464-35.242666 19.3536 0 35.0464 15.786667 35.0464 35.242666V518.0416l0.068267 0.034133 191.470933-81.9456v-479.547733L95.6928 128.546133V608.1024z m471.918933-637.559467V450.090667l369.2288 158.011733V128.512l-369.2288-157.969067z"  horiz-adv-x="1024" />
      
      <glyph glyph-name="a-tubiaochangyong81" unicode="&#58912;" d="M934.4 896c49.4848 0 89.6-40.1152 89.6-89.6 0-48.0512-37.828267-87.2704-85.333333-89.4976v-665.796267c47.505067-2.235733 85.333333-41.454933 85.333333-89.506133 0-49.4848-40.1152-89.6-89.6-89.6-48.0512 0-87.2704 37.8368-89.4976 85.333333H179.0976c-2.218667-47.496533-41.4464-85.333333-89.4976-85.333333C40.1152-128 0-87.8848 0-38.4c0 48.059733 37.828267 87.278933 85.333333 89.506133V716.9024C37.828267 719.121067 0 758.3488 0 806.4 0 855.8848 40.1152 896 89.6 896c48.0512 0 87.2704-37.828267 89.4976-85.333333h665.8048c2.2272 47.505067 41.4464 85.333333 89.4976 85.333333zM870.4 742.4H153.6v-716.8h716.8V742.4z"  horiz-adv-x="1024" />
      
      <glyph glyph-name="a-tubiaochangyong71" unicode="&#58904;" d="M973.277867 827.733333H50.773333C25.088 827.690667 4.292267 806.801067 4.266667 781.0304v-168.635733c0.0256-25.770667 20.821333-46.660267 46.506666-46.702934h40.234667v-551.022933c0-45.738667 37.085867-82.935467 82.6624-82.935467h676.6336c45.610667 0 82.7136 37.188267 82.7136 82.935467V565.700267h40.251733c25.617067 0 46.464 20.949333 46.464 46.702933V781.038933c0 25.736533-20.846933 46.6944-46.455466 46.6944zM857.6 29.047467c-0.034133-11.332267-9.386667-20.514133-20.906667-20.514134H178.730667c-11.502933 0.017067-20.829867 9.1904-20.855467 20.514134V554.666667h699.733333v-525.6192zM942.933333 640h-24.6272v0.1024h-59.076266V640H164.778667v0.1024h-59.0848V640H81.066667V759.466667h861.866666v-119.466667zM324.548267 384H707.498667c16.9216 0 30.634667 15.2832 30.634666 34.133333 0 18.858667-13.713067 34.133333-30.634666 34.133334H324.548267c-16.725333-0.298667-30.148267-15.496533-30.148267-34.133334s13.4144-33.834667 30.148267-34.133333z"  horiz-adv-x="1024" />
      
      <glyph glyph-name="a-tubiaochangyong8" unicode="&#58905;" d="M512.1024 674.414933c-158.370133 0-286.856533-128.4864-286.856533-286.856533 0-158.370133 128.4864-286.856533 286.856533-286.856533 158.378667 0 286.865067 128.4864 286.865067 286.856533 0 158.370133-128.426667 286.856533-286.865067 286.856533z m0-489.685333c-112.017067 0-202.820267 90.820267-202.811733 202.837333 0 112.017067 90.811733 202.820267 202.837333 202.820267 112.017067 0 202.8288-90.811733 202.8288-202.8288a202.837333 202.837333 0 0 0-202.8544-202.837333zM512.042667 896c-282.760533 0-512-229.230933-512-512 0-282.760533 229.239467-512 512-512C794.811733-128 1024 101.248 1024 384c0 282.769067-229.188267 512-511.957333 512z m41.838933-937.070933v69.248a11.946667 11.946667 0 0 1-11.946667 11.946666h-59.767466a11.946667 11.946667 0 0 1-11.9552-11.946666v-69.230934c-204.040533 19.805867-366.045867 183.150933-383.735467 387.797334h67.9936a11.946667 11.946667 0 0 1 11.9552 11.946666v59.767467a11.946667 11.946667 0 0 1-11.946667 11.946667h-67.054933c21.632 200.362667 181.794133 359.168 382.7712 378.709333v-67.157333a11.946667 11.946667 0 0 1 11.9552-11.946667h59.758933a11.946667 11.946667 0 0 1 11.9552 11.946667v67.131733c201.207467-19.5584 361.489067-178.688 382.856534-379.3408h-67.242667a11.946667 11.946667 0 0 1-11.946667-11.946667v-59.767466a11.946667 11.946667 0 0 1 11.946667-11.946667h67.9424c-17.928533-204.356267-179.720533-367.317333-383.488-387.157333h-0.0512z"  horiz-adv-x="1024" />
      
      <glyph glyph-name="a-tubiaochangyong61" unicode="&#58906;" d="M725.4528 784.9728V527.872a155.4688 155.4688 0 0 0 145.783467 76.433067 151.330133 151.330133 0 0 0 112.4608-40.302934 180.5568 180.5568 0 0 0 39.569066-129.928533V-8.533333h-153.4208V404.1984a102.980267 102.980267 0 0 1-15.274666 65.314133 62.242133 62.242133 0 0 1-49.979734 18.065067 80.64 80.64 0 0 1-64.836266-29.354667 80.7936 80.7936 0 0 1-16.384-69.307733V-8.533333H569.258667V784.981333h156.194133z m-445.687467 0c35.396267 1.024 70.545067-6.101333 102.741334-20.846933a188.501333 188.501333 0 0 0 69.4272-54.1952 208.145067 208.145067 0 0 0 36.7872-76.433067 347.101867 347.101867 0 0 0 11.1104-86.161067 284.279467 284.279467 0 0 0-18.048-107.008 193.390933 193.390933 0 0 0-51.370667-74.3424 212.189867 212.189867 0 0 0-79.138133-43.0848 345.429333 345.429333 0 0 0-103.441067-14.592H159.6672V-8.533333H0V784.981333h279.765333zM231.168 425.728c28.603733-1.109333 56.3712 9.386667 77.056 29.184a121.813333 121.813333 0 0 1 29.1584 90.333867 138.845867 138.845867 0 0 1-25.685333 91.016533 104.772267 104.772267 0 0 1-85.384534 31.274667h-69.418666v-241.109334h69.418666l4.864-0.699733z"  horiz-adv-x="1024" />
      
      <glyph glyph-name="a-tubiaochangyong41" unicode="&#58907;" d="M234.666667 806.4v-844.8h-85.333334v844.8zM913.066667 896v-1024H443.733333V896h469.333334zM827.733333 810.666667H529.066667v-853.333334h298.666666V810.666667zM192 896L307.2 768H76.8zM192-128L76.8 0h230.4z"  horiz-adv-x="1024" />
      
      <glyph glyph-name="a-tubiaochangyong22" unicode="&#58908;" d="M896.392533 411.9552c0.349867 4.394667 0.546133 8.772267 0.546134 13.141333 0 88.413867-66.756267 137.386667-117.614934 166.6816 6.5792 23.637333 10.666667 52.565333 10.666667 75.528534 0 59.2896-25.745067 114.7648-72.618667 156.142933C662.9376 871.534933 585.301333 894.7456 508.970667 885.4528a59.963733 59.963733 0 0 1-52.539734-59.485867v-29.696c0-10.154667-7.159467-18.261333-17.408-19.6864-57.685333-8.081067-101.973333-25.685333-131.5072-52.3008-43.153067-38.792533-55.278933-91.392-59.7504-120.558933-71.287467-45.841067-112.1792-110.958933-112.1792-178.619733 0-4.386133 0.196267-8.772267 0.529067-13.141334C103.287467 411.306667 76.8 384.341333 76.8 351.2064v-298.999467C76.8-42.453333 153.5744-119.466667 247.9616-119.466667h536.610133C878.958933-119.466667 955.733333-42.453333 955.733333 52.206933V351.197867c0 33.117867-26.487467 60.100267-59.3408 60.757333zM887.466667 349.866667v-51.2H145.066667v51.2h742.4zM286.907733 545.6384a68.334933 68.334933 0 0 1 31.095467 49.1008c2.269867 18.7136 10.1632 53.725867 37.316267 78.097067 19.413333 17.425067 52.898133 29.866667 96.8704 36.010666 43.272533 6.058667 74.692267 42.043733 74.692266 85.563734V818.321067c56.251733 5.060267 112.298667-11.904 151.611734-46.574934 32.503467-28.654933 50.414933-66.440533 50.414933-106.478933 0-16.827733-3.3536-40.004267-8.277333-57.6-8.226133-29.073067 4.642133-60.194133 31.317333-75.707733C810.257067 498.218667 836.266667 464.520533 836.266667 422.724267c0-4.3264-0.3072-8.704-0.878934-13.124267H205.653333c-0.5632 4.352-0.853333 8.7296-0.853333 13.124267 0 44.654933 29.917867 89.4464 82.107733 122.914133zM783.044267-51.2H249.472C191.9488-51.2 145.066667-4.0448 145.066667 53.930667V230.4h742.4V53.930667C887.458133-4.0448 840.584533-51.2 783.044267-51.2zM366.933333 485.947733a33.664 33.664 0 0 0 33.646934 33.681067c93.969067 0 175.7184 63.581867 198.6816 154.624 4.608 17.979733 22.5792 29.1328 40.925866 24.388267a33.664 33.664 0 0 0 24.379734-40.900267A271.9488 271.9488 0 0 0 400.580267 452.266667 33.664 33.664 0 0 0 366.933333 485.947733z"  horiz-adv-x="1024" />
      
      <glyph glyph-name="a-tubiaochangyong31" unicode="&#58909;" d="M909.1584 764.782933L530.986667 893.661867C526.421333 895.232 520.302933 896 514.176 896c-6.1184 0-12.2368-0.776533-16.802133-2.338133L119.210667 764.782933C109.969067 761.668267 102.4 750.984533 102.4 741.205333v-536.874666c0-9.796267 6.340267-22.698667 14.020267-28.8256l383.624533-298.922667c3.899733-3.012267 8.9088-4.565333 14.020267-4.565333 5.12 0 10.24 1.553067 14.0288 4.5568l383.624533 298.9312c7.68 6.007467 14.020267 18.9184 14.020267 28.8256V741.1968c0.221867 9.787733-7.338667 20.360533-16.580267 23.586133zM845.824 225.6896l-331.648-258.414933L182.528 225.6896V701.576533l331.656533 113.066667 331.648-113.066667v-475.886933zM392.763733 365.3632L306.5088 279.108267a8.9344 8.9344 0 0 1 0-12.578134l37.8368-37.8368c3.456-3.447467 9.130667-3.447467 12.578133 0l86.254934 86.254934c61.986133-39.0656 144.785067-31.607467 198.766933 22.365866 62.651733 62.660267 62.651733 164.155733 0 226.816-62.660267 62.651733-164.155733 62.651733-226.816 0-53.973333-53.981867-61.44-136.891733-22.365867-198.766933z m72.789334 148.352c34.824533 34.833067 91.255467 34.833067 125.9776 0 34.833067-34.833067 34.833067-91.264 0-125.986133-34.833067-34.833067-91.264-34.833067-125.986134 0-34.722133 34.833067-34.833067 91.153067 0 125.986133z"  horiz-adv-x="1024" />
      
      <glyph glyph-name="a-tubiaochangyong51" unicode="&#58910;" d="M520.533333-119.466667c-14.122667 0.034133-25.565867 11.639467-25.6 25.9584V863.172267C495.829333 876.842667 507.025067 887.466667 520.533333 887.466667s24.704-10.624 25.6-24.2944v-956.680534c-0.034133-14.318933-11.477333-25.924267-25.6-25.9584zM989.508267 358.4H32.827733C19.157333 359.296 8.533333 370.491733 8.533333 384c0 13.5168 10.624 24.712533 24.2944 25.6h956.680534c14.336 0 25.9584-11.460267 25.9584-25.6s-11.6224-25.6-25.9584-25.6zM626.722133 128a13.226667 13.226667 0 0 0-12.270933 7.918933L402.0736 630.826667c-2.798933 6.545067 0.426667 14.037333 7.210667 16.733866 6.784 2.696533 14.5408-0.418133 17.339733-6.9632l212.369067-494.907733c2.781867-6.545067-0.4096-14.0288-7.150934-16.785067-1.621333-0.631467-3.370667-0.938667-5.12-0.904533zM260.241067 264.533333a13.226667 13.226667 0 0 0-12.526934 10.794667c-1.194667 6.135467 1.9456 12.288 7.552 14.830933L759.296 502.784a13.021867 13.021867 0 0 0 16.247467-7.534933c2.628267-6.468267-0.085333-13.909333-6.237867-17.041067L265.275733 265.582933a11.682133 11.682133 0 0 0-5.034666-1.0496zM414.3104 128c-4.420267 0.042667-8.533333 2.193067-10.990933 5.742933a12.526933 12.526933 0 0 0-1.28 11.997867l212.420266 494.848c2.816 6.562133 10.606933 9.6768 17.408 6.971733 6.7072-2.7648 9.898667-10.205867 7.150934-16.733866L426.581333 135.978667c-1.9968-4.855467-6.869333-8.021333-12.279466-7.978667zM763.630933 264.533333c-1.723733 0-3.438933 0.3584-5.026133 1.0496L255.530667 477.917867a13.2352 13.2352 0 0 0-7.953067 10.5216c-0.6144 4.693333 1.28 9.386667 4.9664 12.270933a12.8256 12.8256 0 0 0 12.919467 1.757867l503.074133-212.343467a13.371733 13.371733 0 0 0 7.748267-14.830933 13.141333 13.141333 0 0 0-12.654934-10.752zM810.0096 68.266667a26.069333 26.069333 0 0 0-18.449067 7.637333L203.938133 655.6416a25.6 25.6 0 0 0-6.775466 24.951467 26.001067 26.001067 0 0 0 18.5088 18.261333 26.4192 26.4192 0 0 0 25.284266-6.690133L828.5184 112.384a25.531733 25.531733 0 0 0 5.76-28.1856A26.1376 26.1376 0 0 0 810.0096 68.266667zM222.481067 68.266667a26.180267 26.180267 0 0 0-18.517334 7.637333A25.634133 25.634133 0 0 0 196.266667 94.1824c0 6.8608 2.7648 13.44 7.688533 18.2784l588.1344 580.241067a26.4704 26.4704 0 0 0 36.497067-0.546134 25.608533 25.608533 0 0 0 0.554666-36.010666L241.066667 75.963733a26.274133 26.274133 0 0 0-18.5856-7.697066z"  horiz-adv-x="1024" />
      
      <glyph glyph-name="a-tubiaochangyong13" unicode="&#58911;" d="M512.006571 896c282.769067 0 512-229.230933 512-512 0-279.936-224.6656-507.409067-503.534934-511.931733L512.006571-128v85.333333c235.639467 0 426.666667 191.0272 426.666666 426.666667 0 233.284267-187.221333 422.843733-419.6096 426.606933L512.006571 810.666667V896zM503.840171 896c-31.317333 0-62.293333-2.816-92.672-8.3712a42.666667 42.666667 0 1 1 15.36-83.9424 429.380267 429.380267 0 0 0 77.312 6.980267 42.666667 42.666667 0 1 1 0 85.333333zM214.508971 806.459733a514.3552 514.3552 0 0 1-71.6544-59.374933 42.666667 42.666667 0 1 1 60.16-60.5184 429.021867 429.021867 0 0 0 59.767466 49.527467 42.666667 42.666667 0 1 1-48.273066 70.365866zM26.348971 569.130667a508.475733 508.475733 0 0 1-25.6-89.557334 42.666667 42.666667 0 0 1 83.857066-15.837866 423.1424 423.1424 0 0 0 21.2992 74.530133 42.666667 42.666667 0 1 1-79.556266 30.865067zM5.442304 266.308267a508.433067 508.433067 0 0 1 29.559467-88.337067 42.666667 42.666667 0 0 1 78.1056 34.363733 423.108267 423.108267 0 0 0-24.593067 73.5232 42.666667 42.666667 0 0 1-83.072-19.549866z m153.941333-261.111467a513.792 513.792 0 0 1 74.2144-56.1408 42.666667 42.666667 0 0 1 45.098667 72.448 428.458667 428.458667 0 0 0-61.883733 46.813867 42.666667 42.666667 0 0 1-57.429334-63.121067z m274.2784-128.426667c23.048533-3.157333 46.395733-4.753067 69.922134-4.770133a42.666667 42.666667 0 1 1 0.042666 85.333333 430.830933 430.830933 0 0 0-58.368 3.985067 42.666667 42.666667 0 1 1-11.5968-84.539733zM507.739904 601.6c117.819733 0 213.333333-95.5136 213.333333-213.333333s-95.5136-213.333333-213.333333-213.333334-213.333333 95.5136-213.333333 213.333334 95.5136 213.333333 213.333333 213.333333z m0-85.333333c-70.690133 0-128-57.309867-128-128 0-70.690133 57.309867-128 128-128 70.690133 0 128 57.309867 128 128 0 70.690133-57.309867 128-128 128z"  horiz-adv-x="1024" />
      
      <glyph glyph-name="a-tubiaochangyong3" unicode="&#58901;" d="M770.7904 844.8H254.378667a85.333333 85.333333 0 0 1-69.051734-35.2L18.875733 580.352a85.333333 85.333333 0 0 1 2.8416-103.9616l444.544-546.730667a59.733333 59.733333 0 0 1 92.740267 0.059734l443.434667 546.798933a85.333333 85.333333 0 0 1 2.926933 103.68L839.9872 809.386667A85.333333 85.333333 0 0 1 770.798933 844.8zM254.378667 759.466667h516.420266l165.376-229.205334-423.594666-522.299733-424.644267 522.257067L254.370133 759.466667zM273.066667 563.2m42.666666 0l384 0q42.666667 0 42.666667-42.666667l0 0q0-42.666667-42.666667-42.666666l-384 0q-42.666667 0-42.666666 42.666666l0 0q0 42.666667 42.666666 42.666667Z"  horiz-adv-x="1024" />
      
      <glyph glyph-name="a-tubiaochangyong12" unicode="&#58903;" d="M626.295467 776.576a31.146667 31.146667 0 0 1-23.381334-12.458667l-11.4944-14.592-12.194133-15.249066-10.581333-13.0816-14.660267-17.962667-27.392-33.399467-19.490133-23.970133-14.685867-18.269867-10.820267-13.636266-7.620266-9.719467-7.2192-9.3184-6.852267-8.96-6.510933-8.635733-8.200534-11.093334-5.819733-8.055466-3.7376-5.265067-3.6352-5.188267-6.997333-10.205866-5.034667-7.560534-6.485333-10.0096-1.5872-2.500266-3.259734-5.205334c-4.317867-6.954667-8.533333-13.969067-12.7232-21.179733-41.463467-71.287467-62.446933-137.1392-62.446933-204.373333 0-39.338667 7.825067-77.585067 23.313067-114.005334 14.8224-35.0464 36.181333-66.6112 63.607466-94.045866 27.511467-27.434667 59.1104-48.836267 94.2336-63.803734a288.384 288.384 0 0 1 113.809067-23.261866c39.304533 0 77.533867 7.825067 113.928533 23.313066 35.029333 14.830933 66.577067 36.1984 93.994667 63.633067 27.4176 27.528533 48.810667 59.153067 63.778133 94.293333a288.827733 288.827733 0 0 1 23.253334 113.885867c0 67.2256-20.983467 133.077333-62.446934 204.3648l-4.727466 8.0384-4.778667 7.9104-4.8384 7.8336-4.949333 7.790933-5.077334 7.808-5.239466 7.850667-5.435734 7.936-3.754666 5.376-3.857067 5.444267-6.007467 8.337066-6.306133 8.576-8.917333 11.8784-7.1168 9.301334-10.120534 13.021866-5.341866 6.792534-11.3152 14.242133-15.394134 19.131733-13.422933 16.512-44.398933 54.186667-14.523734 17.937067-9.233066 11.5712-8.789334 11.1616-3.498666 4.471466a31.863467 31.863467 0 0 1-23.68 12.416l-1.8944 0.0512-2.0224-0.059733z m5.2736 93.883733a125.781333 125.781333 0 0 0 96.392533-48.622933l11.639467-14.8224 12.228266-15.2832 14.122667-17.390933 40.593067-49.5104 19.575466-24.123734 14.813867-18.4832 8.2944-10.461866 10.410667-13.294934 7.364266-9.540266 7.022934-9.216 4.488533-5.973334 6.485333-8.746666 8.226134-11.3152 5.888-8.277334 5.6576-8.149333 3.669333-5.376 5.367467-8.004267 3.498666-5.3248 3.643734-5.649066a935.253333 935.253333 0 0 0 21.128533-34.645334c49.211733-84.599467 75.170133-166.084267 75.170133-251.562666a382.651733 382.651733 0 0 0-30.7712-150.673067c-19.652267-46.165333-47.803733-87.7824-83.677866-123.793067-35.976533-35.9936-77.6192-64.2048-123.758934-83.7376a382.634667 382.634667 0 0 0-150.613333-30.779733 382.208 382.208 0 0 0-150.6304 30.788267c-46.1568 19.6608-87.748267 47.837867-123.7504 83.729066-35.968 35.985067-64.162133 77.653333-83.6864 123.8016a383.086933 383.086933 0 0 0-30.762667 150.673067c0 83.575467 24.823467 163.328 71.927467 245.922133l4.983467 8.610134 3.4816 5.888 5.230933 8.704 3.524267 5.717333 5.3504 8.533333 3.618133 5.649067 3.6864 5.6576 5.649067 8.490667 5.845333 8.567466 4.010667 5.768534 6.2208 8.7808 6.485333 8.968533 4.5056 6.1184 9.429333 12.5952 7.509334 9.8304 7.901866 10.2144 8.3456 10.641067 5.819734 7.355733 15.5136 19.4048 13.499733 16.674133 22.2208 27.221334 27.5968 33.664 12.629333 15.5648 13.602134 17.006933 10.5216 13.3632c23.176533 30.173867 58.3168 47.889067 96.341333 48.853333l3.268267 0.042667 3.242666-0.042667zM184.6272 754.2016l-4.599467-5.802667-6.818133-8.413866-11.2384-13.738667-7.236267-9.002667-4.488533-5.700266-4.232533-5.4784-3.976534-5.256534-3.720533-5.0688-3.4816-4.881066-3.242667-4.701867c-17.723733-26.2144-24.260267-44.8-24.260266-66.8416 0-10.2912 2.048-20.283733 6.109866-29.841067a77.312 77.312 0 0 1 16.682667-24.6528 78.421333 78.421333 0 0 1 24.763733-16.776533 75.323733 75.323733 0 0 1 29.7472-6.075733c10.282667 0 20.258133 2.039467 29.815467 6.109866a77.252267 77.252267 0 0 1 24.635733 16.682667 78.481067 78.481067 0 0 1 16.768 24.7808 75.451733 75.451733 0 0 1 6.075734 29.781333c0 21.384533-6.152533 39.5264-22.715734 64.529067l-3.1232 4.625067-3.362133 4.7872-3.601067 4.974933-3.84 5.154133-4.096 5.376-4.360533 5.572267-4.625067 5.819733-4.8896 6.058667-14.702933 17.988267-6.0416 7.5264-1.9456 2.466133z m2.261333 52.2496a49.322667 49.322667 0 0 0 36.7616-19.029333l4.1728-5.2992 7.3728-9.130667 12.228267-14.933333 5.444267-6.749867 5.1712-6.528 4.906666-6.306133c0.802133-1.024 1.5872-2.048 2.3552-3.072l4.522667-5.998934c2.926933-3.9424 5.6832-7.765333 8.277333-11.485866l3.7632-5.504c22.493867-33.5104 31.266133-59.255467 31.266134-93.098667 0-17.2032-3.438933-34.048-10.171734-49.834667a129.706667 129.706667 0 0 0-27.630933-40.8832 128.4352 128.4352 0 0 0-40.874667-27.648 126.634667 126.634667 0 0 0-49.8176-10.180266c-17.2032 0-34.048 3.438933-49.834666 10.180266a129.655467 129.655467 0 0 0-40.8576 27.648 128.494933 128.494933 0 0 0-27.630934 40.874667 126.7712 126.7712 0 0 0-10.180266 49.8432c0 32.008533 7.850667 56.7808 27.7504 87.739733l3.524266 5.376 1.860267 2.730667 3.8912 5.5808 4.138667 5.7344 4.386133 5.9136 4.650667 6.101333 4.906666 6.314667 5.179734 6.519467 5.444266 6.7584 17.237334 21.128533 3.959466 4.949333 2.4576 3.140267a49.024 49.024 0 0 0 36.778667 19.1488l2.304 0.0512 2.286933-0.0512zM123.733333 251.818667c-0.1024-0.0256-0.170667-0.085333-0.290133-0.247467l-4.036267-5.0944-6.212266-7.671467-6.0928-7.432533-4.522667-5.5808-4.215467-5.307733-3.925333-5.051734-3.643733-4.8128-3.3792-4.599466c-1.0752-1.501867-2.107733-2.961067-3.0976-4.394667l-2.850134-4.215467c-12.228267-18.602667-16.802133-32.2304-16.802133-48.392533 0-7.901867 1.570133-15.5648 4.693333-22.894933a59.2896 59.2896 0 0 1 12.782934-18.901334 60.1088 60.1088 0 0 1 18.978133-12.8512c7.253333-3.0976 14.933333-4.667733 22.826667-4.667733a57.941333 57.941333 0 0 1 22.869333 4.6848 59.246933 59.246933 0 0 1 18.8928 12.8 60.16 60.16 0 0 1 12.8512 18.986667c3.0976 7.253333 4.667733 14.933333 4.667733 22.843733 0 14.370133-3.618133 26.734933-13.0048 42.359467l-2.474666 3.976533c-0.853333 1.3568-1.7664 2.730667-2.7136 4.130133l-2.9696 4.309334a290.389333 290.389333 0 0 1-1.5872 2.218666l-3.370667 4.599467-5.572267 7.304533-6.212266 7.8592-15.991467 19.626667-3.9424 4.9664a487.773867 487.773867 0 0 0-0.9472 1.220267 0.554667 0.554667 0 0 1-0.3072 0.221866l-0.213333 0.0256-0.187734-0.017066z m2.193067 34.090666a34.645333 34.645333 0 0 0 24.1664-11.8016l1.28-1.544533 5.6576-7.125333 10.376533-12.6976 4.992-6.161067 2.3808-2.986667 4.5312-5.777066 2.158934-2.798934 4.104533-5.444266 1.9456-2.645334 3.677867-5.137066c18.901333-26.948267 26.1632-46.5664 26.1632-72.772267 0-12.509867-2.500267-24.746667-7.3984-36.224a94.301867 94.301867 0 0 0-20.087467-29.7216 93.371733 93.371733 0 0 0-29.713067-20.104533c-11.52-4.898133-23.722667-7.3984-36.215466-7.3984-12.501333 0-24.746667 2.500267-36.215467 7.3984a94.2592 94.2592 0 0 0-29.713067 20.104533 93.4144 93.4144 0 0 0-27.477333 65.9456c0 25.386667 6.8096 44.5952 24.413867 70.272l3.549866 5.060267c1.8432 2.568533 3.780267 5.205333 5.8368 7.936l4.2496 5.546666 4.539734 5.777067 4.829866 6.033067 11.921067 14.592 5.358933 6.690133 1.211734 1.553067a34.440533 34.440533 0 0 0 25.454933 13.431466l2.013867 0.059734 2.005333-0.059734z"  horiz-adv-x="1024" />
      
      <glyph glyph-name="a-tubiaochangyong9" unicode="&#58897;" d="M887.534683 432.589109a397.653068 397.653068 0 0 1-94.463937 131.839912l-33.151978 30.56638a9.198927 9.198927 0 0 1-14.813857-3.780264l-14.805323-42.692239c-9.233061-26.777582-26.205849-54.135431-50.252767-81.023946a7.099729 7.099729 0 0 0-4.66773-2.295465 6.271996 6.271996 0 0 0-4.89813 1.715199 6.741329 6.741329 0 0 0-2.278398 5.495463c4.215464 68.898087-16.298656 146.611102-61.18396 231.193446-37.145575 70.271953-88.763674 125.098583-153.258564 163.327891L406.715804 894.737068c-6.143996 3.660798-14.011724-1.143466-13.670391-8.362662l2.508798-54.92903c1.706666-37.546642-2.628265-70.741286-12.885325-98.321001a326.741116 326.741116 0 0 0-53.546631-93.269271 337.544308 337.544308 0 0 0-54.118364-52.770098 403.174131 403.174131 0 0 1-114.278323-139.059107A399.4792 399.4792 0 0 1 119.466928 271.44575c0-54.015964 10.598393-106.325262 31.564779-155.647897a399.982667 399.982667 0 0 1 86.015943-126.933248c36.923709-36.625042 79.761013-65.46769 127.504982-85.49541C414.003265-117.460658 466.414964-127.999317 520.533328-127.999317a401.322399 401.322399 0 0 1 155.989229 31.249046 397.081335 397.081335 0 0 1 127.487915 85.495409 396.270669 396.270669 0 0 1 86.024476 126.924716c20.966386 49.322634 31.564779 101.631932 31.564779 155.647896a395.434403 395.434403 0 0 1-34.065044 161.271359z m-137.983908-388.334675c-61.183959-60.893826-142.421238-94.310337-229.017447-94.310337s-167.833488 33.416511-229.017448 94.310337C230.553788 105.028794 196.949543 185.600474 196.949543 271.326283a317.013122 317.013122 0 0 0 33.151978 141.917772c21.418652 43.374904 53.324764 82.175945 92.066072 112.042592a399.146401 399.146401 0 0 1 66.764756 65.015423 405.913329 405.913329 0 0 1 66.312489 115.592457 275.66915 275.66915 0 0 1 13.789857 53.222364c27.460248-25.403716 50.474633-56.081029 69.72582-92.014872 38.058641-71.654352 55.603163-135.39831 52.189832-189.653207a84.90661 84.90661 0 0 1 27.801582-68.437287 83.362078 83.362078 0 0 1 60.842626-21.521053 83.148745 83.148745 0 0 1 58.111961 27.929582c15.146657 17.049589 28.245315 34.449044 39.193574 52.189832a315.895256 315.895256 0 0 0 39.87624-66.841556 318.352854 318.352854 0 0 0 27.340782-129.45058c0-85.717276-33.604244-166.399889-94.566337-227.071849z"  horiz-adv-x="1024" />
      
      <glyph glyph-name="a-tubiaochangyong4" unicode="&#58896;" d="M512 486.4c56.456533 0 102.4-45.943467 102.4-102.4 0-56.3456-45.943467-102.4-102.4-102.4s-102.4 45.943467-102.4 102.4c0 56.576 45.943467 102.4 102.4 102.4z m0 102.4C398.856533 588.8 307.2 497.152 307.2 384c0-113.024 91.656533-204.8 204.8-204.8s204.8 91.776 204.8 204.8c0 113.143467-91.656533 204.8-204.8 204.8z m0 102.4c-28.228267 0-51.2 22.8608-51.2 51.2V844.8c0 28.3392 22.971733 51.2 51.2 51.2s51.2-22.8608 51.2-51.2v-102.4c0-28.3392-22.8608-51.2-51.2-51.2z m253.482667-104.917333a50.858667 50.858667 0 0 0-36.224 14.976 51.2512 51.2512 0 0 0 0 72.456533l72.3456 72.3456a51.114667 51.114667 0 0 0 72.337066 0c20.002133-20.002133 20.002133-52.462933 0-72.3456l-72.3456-72.456533a50.602667 50.602667 0 0 0-36.113066-14.976zM972.8 332.8h-102.4c-28.228267 0-51.2 22.8608-51.2 51.2 0 28.228267 22.971733 51.2 51.2 51.2h102.4c28.228267 0 51.2-22.971733 51.2-51.2 0-28.3392-22.971733-51.2-51.2-51.2z m-135.082667-325.9392c-13.141333 0-26.171733 5.034667-36.232533 15.086933l-72.3456 72.448a51.114667 51.114667 0 0 0 0 72.3456 51.2512 51.2512 0 0 0 72.465067 0l72.337066-72.337066c20.002133-20.002133 20.002133-52.462933 0-72.3456a50.901333 50.901333 0 0 0-36.224-15.197867zM511.889067-128c-28.228267 0-51.2 22.8608-51.2 51.2v102.4c0 28.228267 22.971733 51.2 51.2 51.2s51.2-22.971733 51.2-51.2v-102.4c0-28.3392-22.971733-51.2-51.2-51.2z m-325.828267 135.082667a50.858667 50.858667 0 0 0-36.232533 14.976 51.2512 51.2512 0 0 0 0 72.456533l72.3456 72.3456a51.114667 51.114667 0 0 0 72.337066 0c20.002133-20.002133 20.002133-52.462933 0-72.3456l-72.337066-72.448a50.4064 50.4064 0 0 0-36.113067-14.976zM153.6 332.928H51.2c-28.228267 0-51.2 22.971733-51.2 51.2 0 28.3392 22.971733 51.2 51.2 51.2h102.4c28.228267 0 51.2-22.8608 51.2-51.2 0-28.228267-22.971733-51.2-51.2-51.2z m105.028267 253.3632a51.165867 51.165867 0 0 0-36.224 15.086933l-72.3456 72.3456c-20.002133 20.002133-20.002133 52.4544 0 72.3456a51.114667 51.114667 0 0 0 72.337066 0l72.3456-72.3456a51.114667 51.114667 0 0 0 0-72.3456 50.3296 50.3296 0 0 0-36.113066-15.086933z"  horiz-adv-x="1024" />
      
      <glyph glyph-name="a-tubiaochangyong7" unicode="&#58898;" d="M826.666667 714.402133V824.533333A62.993067 62.993067 0 0 1 763.733333 887.466667H71.466667A62.993067 62.993067 0 0 1 8.533333 824.533333V132.266667a62.993067 62.993067 0 0 1 62.933334-62.933334h110.1312a15.786667 15.786667 0 0 0 15.735466-15.735466v-110.1312A62.993067 62.993067 0 0 1 260.266667-119.466667h121.941333c2.158933 0 3.925333 1.774933 3.925333 3.933867v55.0656a3.9424 3.9424 0 0 1-3.925333 3.933867H260.266667V53.597867a15.786667 15.786667 0 0 0 15.735466 15.735466H763.733333a62.993067 62.993067 0 0 1 62.933334 62.933334V619.997867a15.786667 15.786667 0 0 0 15.735466 15.735466h110.1312v-121.9328c0-2.158933 1.7664-3.925333 3.925334-3.925333h55.074133c2.167467 0 3.933867 1.7664 3.933867 3.925333v121.941334a62.993067 62.993067 0 0 1-62.933334 62.9248H842.402133a15.786667 15.786667 0 0 0-15.735466 15.735466zM747.997867 132.266667H87.210667a15.786667 15.786667 0 0 0-15.735467 15.735466V808.797867a15.786667 15.786667 0 0 0 15.735467 15.735466h660.795733a15.786667 15.786667 0 0 0 15.735467-15.735466v-660.795734a15.786667 15.786667 0 0 0-15.735467-15.735466z m204.535466-251.733334h-121.941333a3.9424 3.9424 0 0 0-3.925333 3.933867v55.0656c0 2.167467 1.7664 3.933867 3.925333 3.933867h106.205867a15.786667 15.786667 0 0 1 15.735466 15.735466V65.399467c0 2.167467 1.7664 3.933867 3.925334 3.933866h55.074133c2.167467 0 3.933867-1.7664 3.933867-3.925333v-121.941333a62.993067 62.993067 0 0 0-62.933334-62.933334zM731.477333-119.466667H490.299733a3.899733 3.899733 0 0 0-3.8912 3.8912v54.468267c0 2.133333 1.749333 3.882667 3.8912 3.882667H731.477333c2.133333 0 3.882667-1.749333 3.882667-3.882667v-54.468267c0-2.133333-1.749333-3.8912-3.882667-3.8912z m280.098134 280.098134h-54.459734a3.899733 3.899733 0 0 0-3.8912 3.8912V405.7088c0 2.141867 1.749333 3.8912 3.8912 3.8912h54.459734c2.133333 0 3.8912-1.749333 3.8912-3.8912V164.522667c0-2.141867-1.749333-3.8912-3.8912-3.8912z"  horiz-adv-x="1024" />
      
      <glyph glyph-name="a-tubiaochangyong6" unicode="&#58899;" d="M476.817067 871.108267L47.377067 669.585067A82.210133 82.210133 0 0 1 0.008533 594.090667a82.235733 82.235733 0 0 1 49.408-74.180267l429.44-187.4688a82.875733 82.875733 0 0 1 66.304 0l429.431467 187.528533a82.235733 82.235733 0 0 1 49.408 74.1888 82.210133 82.210133 0 0 1-47.3856 75.4944L547.1744 871.082667a82.8672 82.8672 0 0 1-70.382933 0l0.0256 0.017066z m-394.24-275.882667L512 796.714667l429.4144-201.437867-429.44-187.528533L82.568533 595.217067z m858.7776-414.037333a41.352533 41.352533 0 0 0 53.717333-20.309334 41.028267 41.028267 0 0 0-18.688-54.101333l-2.909867-1.365333-446.037333-187.502934a41.437867 41.437867 0 0 0-28.6208-1.288533l-3.464533 1.288533L49.339733 105.386667a41.045333 41.045333 0 0 0-22.570666 52.369066 41.326933 41.326933 0 0 0 51.669333 24.4992l3.0208-1.1264 429.9264-180.718933 429.969067 180.778667zM930.133333 384L516.078933 200.8064 102.4 383.5904v-65.826133c0-16.059733 9.386667-30.592 23.893333-36.881067l347.016534-151.3984A96.853333 96.853333 0 0 1 516.078933 119.466667c14.609067 0 29.201067 3.336533 42.794667 10.018133l347.374933 151.722667A40.192 40.192 0 0 1 930.133333 318.097067V384z"  horiz-adv-x="1024" />
      
      <glyph glyph-name="a-tubiaochangyong5" unicode="&#58900;" d="M378.538667 842.615467h-67.9424a9.728 9.728 0 0 1-9.7024-9.7024v-67.9424a9.728 9.728 0 0 1 9.7024-9.710934h67.9424a9.728 9.728 0 0 1 9.710933 9.710934V832.913067a9.728 9.728 0 0 1-9.710933 9.7024z m-53.384534-829.866667h-67.9424a9.728 9.728 0 0 1-9.7024-9.710933v-67.9424a9.728 9.728 0 0 1 9.7024-9.710934h67.9424a9.728 9.728 0 0 1 9.710934 9.710934v67.9424a9.728 9.728 0 0 1-9.710934 9.7024z m635.758934 247.5008h-67.9424a9.728 9.728 0 0 1-9.710934-9.7024v-67.9424a9.728 9.728 0 0 1 9.710934-9.710933h67.9424a9.728 9.728 0 0 1 9.7024 9.710933V250.538667a9.728 9.728 0 0 1-9.7024 9.7024zM131.037867 595.114667H63.095467a9.728 9.728 0 0 1-9.710934-9.710934v-67.9424a9.728 9.728 0 0 1 9.710934-9.7024h67.9424a9.728 9.728 0 0 1 9.7024 9.7024v67.9424a9.728 9.728 0 0 1-9.7024 9.710934z m0-194.133334H63.095467a9.728 9.728 0 0 1-9.710934-9.7024v-67.9424a9.728 9.728 0 0 1 9.710934-9.7024h67.9424a9.728 9.728 0 0 1 9.7024 9.7024v67.9424a9.728 9.728 0 0 1-9.7024 9.710934z m0-194.116266H63.095467a9.728 9.728 0 0 1-9.710934-9.7024v-67.9424a9.728 9.728 0 0 1 9.710934-9.710934h67.9424a9.728 9.728 0 0 1 9.7024 9.710934v67.9424a9.728 9.728 0 0 1-9.7024 9.7024z m0-194.1248H63.095467a9.728 9.728 0 0 1-9.710934-9.7024v-67.9424a9.728 9.728 0 0 1 9.710934-9.710934h67.9424a9.728 9.728 0 0 1 9.7024 9.710934v67.9424a9.728 9.728 0 0 1-9.7024 9.7024z m388.241066 0h-67.9424a9.728 9.728 0 0 1-9.7024-9.7024v-67.9424a9.728 9.728 0 0 1 9.7024-9.710934h67.9424a9.728 9.728 0 0 1 9.710934 9.710934v67.9424a9.728 9.728 0 0 1-9.710934 9.7024z m194.1248 0H645.461333a9.728 9.728 0 0 1-9.710933-9.7024v-67.9424a9.728 9.728 0 0 1 9.710933-9.710934h67.9424a9.728 9.728 0 0 1 9.7024 9.710934v67.9424a9.728 9.728 0 0 1-9.7024 9.7024z m169.856 344.576a9.728 9.728 0 0 1 9.710934-9.710934h67.9424a9.728 9.728 0 0 1 9.7024 9.7024v206.250667c0 154.094933-124.962133 279.057067-279.048534 279.057067h-206.250666a9.728 9.728 0 0 1-9.710934-9.7024v-67.9424a9.728 9.728 0 0 1 9.7024-9.710934h206.250667c105.924267 0 191.701333-85.777067 191.701333-191.6928v-206.250666zM184.4224 896H9.710933A9.728 9.728 0 0 1 0 886.2976v-174.711467a9.728 9.728 0 0 1 9.710933-9.710933h174.711467a9.728 9.728 0 0 1 9.7024 9.710933V886.2976A9.728 9.728 0 0 1 184.4224 896z m-58.24-123.264a2.952533 2.952533 0 0 0-2.909867-2.9184H70.8608a2.952533 2.952533 0 0 0-2.9184 2.9184V825.147733c0 1.578667 1.339733 2.909867 2.9184 2.909867h52.411733c1.578667 0 2.909867-1.3312 2.909867-2.909867v-52.411733z m888.1152-706.6112H839.586133a9.728 9.728 0 0 1-9.710933-9.7024v-174.711467a9.728 9.728 0 0 1 9.710933-9.7024h174.711467a9.728 9.728 0 0 1 9.7024 9.7024V56.4224a9.728 9.728 0 0 1-9.7024 9.7024z m-58.24-123.264a2.952533 2.952533 0 0 0-2.909867-2.909867h-52.411733a2.952533 2.952533 0 0 0-2.9184 2.901334v52.420266c0 1.578667 1.339733 2.909867 2.9184 2.909867h52.411733c1.578667 0 2.901333-1.3312 2.901334-2.909867v-52.411733z"  horiz-adv-x="1024" />
      
      <glyph glyph-name="a-tubiaochangyong11" unicode="&#58894;" d="M928.2048 235.972267h1.3824L791.3216 637.781333H679.168l-65.6128-63.547733c-7.9872-7.697067-9.6256-157.943467-19.5328-178.2016-10.24 24.695467-29.568 175.112533-35.968 184.379733l-136.96 198.980267-257.5104-83.182933-71.2448-460.2368h1.4336l-10.88-85.316267 1.3056-0.170667 68.4288-168.277333h718.7968l68.0704 167.389867 2.5088 1.058133-13.7728 85.316267h-0.0256z m80.2816 0L1024 151.364267 929.8176-102.4H352.1536c35.968 0-232.9088 0-250.7008 14.993067L0 151.3984l16.0512 84.608c0 2.397867-0.6144 4.718933-0.2304 7.150933l76.416 493.371734c2.5344 16.008533 13.021867 29.013333 27.008 33.476266l305.664 98.7136c15.1296 4.864 31.3856-1.058133 41.0368-14.967466l128.0768-186.094934 45.6704 44.2624c6.980267 6.741333 15.906133 10.453333 25.1392 10.4448h152.832c15.786667 0.042667 29.960533-10.786133 35.6608-27.2384l152.832-444.100266c1.7152-4.949333 2.2528-10.069333 2.304-15.0784l0.0256 0.0256z"  horiz-adv-x="1024" />
      
      <glyph glyph-name="a-tubiaochangyong2" unicode="&#58893;" d="M605.866515 896c56.550386 0 102.399974-45.849589 102.399975-102.399974v-503.466541c0-56.550386-45.849589-102.399974-102.399975-102.399975H102.399974C45.849589 187.73351 0 233.583099 0 290.133485V793.600026C0 850.150411 45.849589 896 102.399974 896h503.466541z m0-85.333312H102.399974a17.066662 17.066662 0 0 1-17.023995-15.786663L85.333312 793.600026v-503.466541a17.066662 17.066662 0 0 1 15.786663-17.015463L102.399974 273.066822h503.466541a17.066662 17.066662 0 0 1 17.023996 15.786663L622.933178 290.133485V793.600026a17.066662 17.066662 0 0 1-15.786663 17.023995L605.866515 810.666688zM819.199795 819.200019a42.666656 42.666656 0 0 0 42.62399-40.814923L861.866451 776.533363v-665.599833c0-51.012254-40.70399-92.52691-91.409044-93.83251L767.999808 17.066886H102.399974a42.666656 42.666656 0 0 0-1.851732 85.299179L102.399974 102.400198h665.599834a8.533331 8.533331 0 0 1 8.473598 7.543465L776.533139 110.93353V776.533363a42.666656 42.666656 0 0 0 42.666656 42.666656zM981.333088 750.93337a42.666656 42.666656 0 0 0 42.623989-40.814924L1023.999744 708.266714v-691.199828c0-79.189314-63.462384-143.564764-142.310364-145.04103L878.933114-127.999744H187.733286a42.666656 42.666656 0 0 0-1.851732 85.299179L187.733286-42.666432h691.199828a59.733318 59.733318 0 0 1 59.699185 57.685319L938.666432 17.066886V708.266714a42.666656 42.666656 0 0 0 42.666656 42.666656z"  horiz-adv-x="1024" />
      
      <glyph glyph-name="a-tubiaochangyong1" unicode="&#58890;" d="M0 759.466667m42.666667 0l614.4 0q42.666667 0 42.666666-42.666667l0 0q0-42.666667-42.666666-42.666667l-614.4 0q-42.666667 0-42.666667 42.666667l0 0q0 42.666667 42.666667 42.666667ZM324.266667 93.866667m42.666666 0l614.4 0q42.666667 0 42.666667-42.666667l0 0q0-42.666667-42.666667-42.666667l-614.4 0q-42.666667 0-42.666666 42.666667l0 0q0 42.666667 42.666666 42.666667ZM35.310933-32.341333L928.341333 860.672a42.666667 42.666667 0 1 0 60.3392-60.3392L95.658667-92.672a42.666667 42.666667 0 0 0-60.330667 60.330667zM204.8 853.333333v-614.4a42.666667 42.666667 0 0 0-85.333333 0V853.333333a42.666667 42.666667 0 0 0 85.333333 0zM904.533333 529.066667v-614.4a42.666667 42.666667 0 1 0-85.333333 0V529.066667a42.666667 42.666667 0 0 0 85.333333 0z"  horiz-adv-x="1024" />
      
      <glyph glyph-name="a-tubiaochangyong" unicode="&#58889;" d="M407.35616 412.526933H164.00256c-11.349333 0-21.845333 6.033067-27.52 15.829334L14.822827 638.446933a31.633067 31.633067 0 0 0 0 31.658667L136.491093 880.162133A31.803733 31.803733 0 0 0 164.011093 896H407.35616c11.357867 0 21.845333-6.033067 27.52-15.837867l121.685333-210.056533a31.5904 31.5904 0 0 0 0-31.658667l-121.685333-210.090666a31.803733 31.803733 0 0 0-27.52-15.829334z m-225.006933 63.317334h206.6688l103.364266 178.432L389.018027 832.6656H182.349227L79.027627 654.276267l103.3216-178.432z m688.238933-337.732267h-243.370667a31.7184 31.7184 0 0 0-27.502933 15.829333L478.046293 364.014933a31.573333 31.573333 0 0 0 0 31.658667l121.659734 210.090667a31.786667 31.786667 0 0 0 27.511466 15.8208h243.370667c11.349333 0 21.8368-6.024533 27.52-15.829334l121.685333-210.090666a31.5392 31.5392 0 0 0 0-31.650134L898.10816 153.941333a31.726933 31.726933 0 0 0-27.52-15.829333z m-225.024 63.325867h206.702933l103.364267 178.4064-103.364267 178.423466H645.555627l-103.3216-178.432 103.3216-178.397866zM396.86016-119.466667H153.523627c-11.349333 0-21.8368 6.058667-27.52 15.8208L4.301227 106.4448a31.658667 31.658667 0 0 0 0 31.658667l121.7024 210.090666a31.803733 31.803733 0 0 0 27.52 15.8208H396.86016c11.349333 0 21.845333-6.033067 27.52-15.8208l121.659733-210.090666a31.5904 31.5904 0 0 0 0-31.658667l-121.659733-210.090667A31.863467 31.863467 0 0 0 396.86016-119.466667z m-225.006933 63.3344h206.677333l103.338667 178.423467-103.338667 178.4064h-206.677333L68.51456 122.2912l103.338667-178.432zM800.913493 236.322133a31.957333 31.957333 0 0 0-15.991466 4.352 31.889067 31.889067 0 0 0-11.383467 43.537067l63.36 108.458667a31.684267 31.684267 0 0 0 43.434667 11.392 31.837867 31.837867 0 0 0 11.383466-43.502934l-63.351466-108.458666a31.701333 31.701333 0 0 0-27.4432-15.786667zM343.091627 510.626133c-5.632-0.008533-11.153067 1.4848-16 4.334934a31.829333 31.829333 0 0 0-11.383467 43.502933l63.377067 108.458667a31.744 31.744 0 0 0 43.451733 11.383466 31.837867 31.837867 0 0 0 11.374933-43.4944l-63.3856-108.458666a31.726933 31.726933 0 0 0-27.434666-15.726934zM338.97856-25.6a31.803733 31.803733 0 0 0-27.383467 47.812267l63.3856 108.4928a31.726933 31.726933 0 0 0 43.434667 11.426133 31.889067 31.889067 0 0 0 11.383467-43.537067l-63.377067-108.4928a31.675733 31.675733 0 0 0-27.4432-15.701333z"  horiz-adv-x="1024" />
      
    </font>
</defs>
</svg>
